<?xml version="1.0" standalone="no"?>
<!DOCTYPE svg PUBLIC "-//W3C//DTD SVG 1.1//EN" "http://www.w3.org/Graphics/SVG/1.1/DTD/svg11.dtd" >
<svg>
<metadata>
Created by FontForge 20090622 at Wed Sep 30 01:37:33 2015
 By deploy user
[c] Copyright 2000-2003, The Font Bureau, Inc. Designed by Cyrus Highsmith, Tobias Frere-Jones, and Font Bureau. All rights reserved.
</metadata>
<defs>
<font id="BentonSans-Black" horiz-adv-x="589" >
  <font-face 
    font-family="BentonSans"
    font-weight="900"
    font-stretch="normal"
    units-per-em="1000"
    panose-1="2 0 6 3 5 0 0 2 0 4"
    ascent="800"
    descent="-200"
    x-height="536"
    cap-height="740"
    bbox="-88 -205 1591 963"
    underline-thickness="20"
    underline-position="-113"
    unicode-range="U+0020-U+FB02"
  />
<missing-glyph horiz-adv-x="500" 
 />
    <glyph glyph-name=".notdef" horiz-adv-x="500" 
 />
    <glyph glyph-name=".null" horiz-adv-x="0" 
 />
    <glyph glyph-name="nonmarkingreturn" horiz-adv-x="333" 
 />
    <glyph glyph-name="space" unicode=" " horiz-adv-x="286" 
 />
    <glyph glyph-name="exclam" unicode="!" horiz-adv-x="375" 
d="M116 247l-48 493h249l-48 -493h-153zM89 0v170h207v-170h-207z" />
    <glyph glyph-name="quotedbl" unicode="&#x22;" horiz-adv-x="482" 
d="M279 463l-17 196v81h164v-81l-17 -196h-130zM73 463l-17 196v81h164v-81l-17 -196h-130z" />
    <glyph glyph-name="numbersign" unicode="#" horiz-adv-x="785" 
d="M89 0l36 174h-107v143h137l22 106h-116v143h146l37 174h176l-36 -174h79l37 174h176l-37 -174h128v-143h-158l-22 -106h137v-143h-167l-36 -174h-176l36 174h-79l-37 -174h-176zM331 317h80l22 106h-79z" />
    <glyph glyph-name="dollar" unicode="$" horiz-adv-x="697" 
d="M293 -10q-90 10 -150.5 52t-106.5 114l132 84q27 -36 40 -51t38.5 -35t52.5 -27v172q-54 13 -91.5 27t-75 39t-57 64t-19.5 92q0 100 64 160.5t173 69.5v68h114v-71q78 -11 128.5 -45.5t90.5 -89.5l-130 -95q-46 65 -93 84v-159q122 -27 184.5 -77t62.5 -148
q0 -90 -58.5 -152.5t-184.5 -75.5v-83h-114v83zM299 612q-63 -13 -63 -73q0 -28 14.5 -43.5t48.5 -27.5v144zM403 124q67 14 67 75q0 27 -15 43.5t-52 29.5v-148z" />
    <glyph glyph-name="percent" unicode="%" horiz-adv-x="1165" 
d="M250 252q-99 0 -156.5 68t-57.5 183q0 114 57.5 182t156.5 68q98 0 155.5 -68t57.5 -182q0 -115 -57.5 -183t-155.5 -68zM277 0l442 740h168l-442 -740h-168zM916 -10q-99 0 -156.5 68t-57.5 183q0 114 57.5 182t156.5 68q98 0 155.5 -68t57.5 -182q0 -115 -57.5 -183
t-155.5 -68zM250 373q30 0 41.5 32t11.5 98q0 65 -12 96t-41 31q-30 0 -42.5 -31t-12.5 -96q0 -130 55 -130zM916 111q30 0 41.5 32t11.5 98q0 65 -12 96t-41 31q-30 0 -42.5 -31t-12.5 -96q0 -130 55 -130z" />
    <glyph glyph-name="ampersand" unicode="&#x26;" horiz-adv-x="752" 
d="M298 -14q-141 0 -216 52.5t-75 144.5q0 85 44.5 134t123.5 85q-45 90 -45 160q0 81 57 136.5t167 55.5q104 0 155.5 -50t51.5 -120q0 -54 -25.5 -96.5t-57 -65.5t-80.5 -48q16 -22 35 -44q38 -45 62 -68q25 56 34 123h166q-18 -125 -68 -215q58 -22 131 -22v-158
q-150 0 -253 49q-87 -53 -207 -53zM337 475q63 40 63 102q0 21 -10 36.5t-31 15.5q-20 0 -34.5 -13t-14.5 -43q0 -44 27 -98zM299 120q39 0 74 16q-34 32 -84 94l-45 59q-37 -32 -37 -76q0 -43 26.5 -68t65.5 -25z" />
    <glyph glyph-name="quotesingle" unicode="'" horiz-adv-x="276" 
d="M73 463l-17 196v81h164v-81l-17 -196h-130z" />
    <glyph glyph-name="parenleft" unicode="(" horiz-adv-x="406" 
d="M295 -205q-128 107 -193 226.5t-65 268.5t65 268.5t193 226.5l92 -96q-145 -175 -145 -399q0 -230 151 -406z" />
    <glyph glyph-name="parenright" unicode=")" horiz-adv-x="406" 
d="M111 -205l-98 89q151 176 151 406q0 224 -145 399l92 96q128 -107 193 -226.5t65 -268.5t-65 -268.5t-193 -226.5z" />
    <glyph glyph-name="asterisk" unicode="*" horiz-adv-x="508" 
d="M186 282l-98 58l89 129l-157 -11v110l158 -11l-90 130l98 58l68 -143l68 143l99 -58l-90 -130l157 11v-110l-157 11l90 -129l-98 -58l-69 142z" />
    <glyph glyph-name="plus" unicode="+" horiz-adv-x="650" 
d="M247 92v190h-179v154h179v190h156v-190h179v-154h-179v-190h-156z" />
    <glyph glyph-name="comma" unicode="," horiz-adv-x="287" 
d="M69 -127l50 127h-79v180h207v-153l-86 -154h-92z" />
    <glyph glyph-name="hyphen" unicode="-" horiz-adv-x="357" 
d="M40 250v128h277v-128h-277z" />
    <glyph glyph-name="period" unicode="." horiz-adv-x="287" 
d="M40 0v180h207v-180h-207z" />
    <glyph glyph-name="slash" unicode="/" horiz-adv-x="678" 
d="M23 0l430 740h202l-430 -740h-202z" />
    <glyph glyph-name="zero" unicode="0" horiz-adv-x="713" 
d="M357 -14q-151 0 -237 104.5t-86 279.5t86 279.5t237 104.5t236.5 -104.5t85.5 -279.5t-85.5 -279.5t-236.5 -104.5zM357 141q123 0 123 229q0 225 -123 225q-124 0 -124 -225q0 -229 124 -229z" />
    <glyph glyph-name="one" unicode="1" horiz-adv-x="469" 
d="M21 0v154h131v409q-64 -34 -129 -34v163q85 3 133 48h190v-586h113v-154h-438z" />
    <glyph glyph-name="two" unicode="2" horiz-adv-x="625" 
d="M17 0v16q0 48 6 82t25.5 78.5t64 88.5t114.5 89q13 9 36 23t32 20l25.5 17t22.5 16.5l16.5 15t14 16.5l8 16.5t6 19.5t1.5 22q0 32 -20 50t-55 18q-37 0 -79.5 -26.5t-74.5 -70.5l-139 102q117 161 299 161q125 0 194 -58.5t69 -161.5q0 -45 -7.5 -76.5t-43 -75.5
t-102.5 -86l-68.5 -44.5t-51 -35.5t-40 -35t-13.5 -27h331v-154h-571z" />
    <glyph glyph-name="three" unicode="3" horiz-adv-x="636" 
d="M305 -14q-191 0 -301 122l120 112q34 -37 81.5 -57t89.5 -20q108 0 108 82q0 51 -38 69t-115 18h-41v144h42q45 0 75 6.5t42 19t16 23t4 25.5q0 30 -19.5 45.5t-67.5 15.5q-94 0 -164 -60l-105 126q52 46 131.5 71t161.5 25q125 0 192.5 -48t67.5 -143q0 -63 -36.5 -109
t-105.5 -61q81 -12 125 -62t44 -118q0 -108 -83.5 -167t-223.5 -59z" />
    <glyph glyph-name="four" unicode="4" horiz-adv-x="704" 
d="M378 0v130h-360v145l337 465h216v-455h125v-155h-125v-130h-193zM222 285h156v215h-2z" />
    <glyph glyph-name="five" unicode="5" horiz-adv-x="620" 
d="M297 -14q-171 0 -291 84l96 134q87 -61 181 -61q124 0 124 105q0 112 -112 112q-69 0 -123 -61l-125 38l30 403h473l-10 -148h-312l-11 -125q44 37 143 37q121 0 183.5 -68.5t62.5 -181.5q0 -122 -83 -195t-226 -73z" />
    <glyph glyph-name="six" unicode="6" horiz-adv-x="671" 
d="M352 -14q-145 0 -231.5 98t-86.5 273q0 89 21 159t55 113.5t80 72.5t91.5 40.5t93.5 11.5q137 0 230 -64l-83 -134q-64 41 -137 41q-62 0 -103.5 -42t-51.5 -126q82 53 174 53q48 0 89.5 -12.5t76.5 -38.5t55.5 -73.5t20.5 -111.5q0 -119 -81 -189.5t-213 -70.5zM360 135
q48 0 73.5 31t25.5 71q0 100 -98 100q-78 0 -132 -41q6 -161 131 -161z" />
    <glyph glyph-name="seven" unicode="7" horiz-adv-x="535" 
d="M65 0l272 582h-341v158h544v-145l-273 -595h-202z" />
    <glyph glyph-name="eight" unicode="8" horiz-adv-x="650" 
d="M325 -14q-147 0 -229 54.5t-82 155.5q0 63 43.5 112.5t107.5 75.5q-60 33 -88.5 72.5t-28.5 106.5q0 78 72.5 134.5t204.5 56.5q136 0 206.5 -56t70.5 -135q0 -55 -30.5 -102.5t-83.5 -71.5q73 -32 110.5 -74t37.5 -119q0 -101 -82 -155.5t-229 -54.5zM340 453
q69 37 69 91q0 28 -20 50t-63 22q-44 0 -64.5 -20.5t-20.5 -49.5q0 -34 25 -55t74 -38zM325 119q53 0 81.5 25.5t28.5 62.5q0 34 -27.5 57t-97.5 50q-95 -49 -95 -107q0 -37 28.5 -62.5t81.5 -25.5z" />
    <glyph glyph-name="nine" unicode="9" horiz-adv-x="671" 
d="M296 -14q-137 0 -230 64l83 129q64 -41 137 -41q61 0 103 44t52 129q-82 -53 -174 -53q-48 0 -89.5 12.5t-76.5 38.5t-55.5 73.5t-20.5 111.5q0 119 81 189.5t213 70.5q145 0 231.5 -98t86.5 -273q0 -89 -21 -159t-55 -113.5t-80 -72.5t-91.5 -40.5t-93.5 -11.5zM310 403
q78 0 132 41q-3 79 -35 117.5t-96 38.5q-48 0 -73.5 -29t-25.5 -68q0 -100 98 -100z" />
    <glyph glyph-name="colon" unicode=":" horiz-adv-x="305" 
d="M49 356v180h207v-180h-207zM49 0v180h207v-180h-207z" />
    <glyph glyph-name="semicolon" unicode=";" horiz-adv-x="305" 
d="M49 356v180h207v-180h-207zM75 -127l50 127h-76v180h207v-148l-89 -159h-92z" />
    <glyph glyph-name="less" unicode="&#x3c;" horiz-adv-x="650" 
d="M593 38l-529 235v102l529 235v-159l-320 -127l320 -127v-159z" />
    <glyph glyph-name="equal" unicode="=" horiz-adv-x="650" 
d="M72 375v136h505v-136h-505zM72 147v136h505v-136h-505z" />
    <glyph glyph-name="greater" unicode="&#x3e;" horiz-adv-x="650" 
d="M64 38v159l320 127l-320 127v159l529 -235v-102z" />
    <glyph glyph-name="question" unicode="?" horiz-adv-x="617" 
d="M210 244q-4 30 -4 75q0 96 112 153q35 18 50 35.5t15 45.5q0 20 -18.5 33t-52.5 13q-42 0 -91 -24.5t-78 -56.5l-116 112q117 124 307 124q117 0 180 -51t63 -133q0 -64 -30 -103t-84 -65q-28 -14 -44 -25t-26.5 -20.5t-14 -26.5t-4.5 -30t-1 -45v-11h-163zM188 0v170
h207v-170h-207z" />
    <glyph glyph-name="at" unicode="@" horiz-adv-x="868" 
d="M422 -14q-176 0 -279 107t-103 275q0 166 109.5 276t286.5 110q178 0 285 -104.5t107 -269.5q0 -103 -54 -166t-154 -63q-61 0 -93 23.5t-46 69.5q-65 -76 -154 -76q-59 0 -93 40t-34 111q0 122 54 194.5t130 72.5q75 0 110 -50l7 42h148l-52 -299q-5 -29 4.5 -41
t41.5 -12q47 0 75 40t28 109q0 134 -84 216.5t-227 82.5q-142 0 -224.5 -85t-82.5 -221q0 -138 80 -224.5t221 -86.5q113 0 182 51l40 -56q-87 -66 -229 -66zM398 279q29 0 56 29l23 132q-24 25 -51 25q-39 0 -58 -38.5t-19 -91.5q0 -29 9.5 -42.5t39.5 -13.5z" />
    <glyph glyph-name="A" unicode="A" horiz-adv-x="730" 
d="M10 0l262 743h186l262 -743h-202l-45 138h-233l-48 -138h-182zM287 280h141l-68 205h-2z" />
    <glyph glyph-name="B" unicode="B" horiz-adv-x="724" 
d="M69 0v740h311q54 0 95 -6t84 -23.5t66.5 -56t23.5 -96.5q0 -75 -39 -116t-101 -53v-2q75 -13 116.5 -54.5t41.5 -127.5q0 -58 -24.5 -99.5t-66.5 -63.5t-87.5 -32t-96.5 -10h-323zM265 445h95q99 0 99 71t-97 71h-97v-142zM265 150h100q107 0 107 80q0 77 -109 77h-98
v-157z" />
    <glyph glyph-name="C" unicode="C" horiz-adv-x="741" 
d="M381 -14q-156 0 -251.5 95t-95.5 289q0 192 97.5 288t249.5 96q258 0 313 -236l-189 -56q-17 62 -44.5 94.5t-80.5 32.5q-73 0 -109.5 -57t-36.5 -162t37.5 -164.5t110.5 -59.5q56 0 85.5 34t47.5 107l189 -42q-29 -123 -104.5 -191t-218.5 -68z" />
    <glyph glyph-name="D" unicode="D" horiz-adv-x="753" 
d="M69 0v740h243q87 0 157 -18t128 -58.5t90 -113.5t32 -175q0 -85 -22 -150.5t-58.5 -107.5t-89.5 -68.5t-111 -37.5t-126 -11h-243zM268 161h55q111 0 153.5 48.5t42.5 163.5q0 106 -43.5 153.5t-154.5 47.5h-53v-413z" />
    <glyph glyph-name="E" unicode="E" horiz-adv-x="645" 
d="M69 0v740h528v-166h-328v-120h234v-156h-234v-137h345v-161h-545z" />
    <glyph glyph-name="F" unicode="F" horiz-adv-x="595" 
d="M69 0v740h511v-166h-311v-148h217v-156h-217v-270h-200z" />
    <glyph glyph-name="G" unicode="G" horiz-adv-x="776" 
d="M365 -14q-169 0 -250 104.5t-81 282.5q0 176 92 278.5t256 102.5q117 0 196.5 -53t115.5 -188l-183 -51q-21 69 -52.5 98t-77.5 29q-15 0 -28 -2t-36.5 -13.5t-40 -32t-29 -63.5t-12.5 -102q0 -73 16 -122.5t42.5 -71t49 -29t47.5 -7.5q95 0 130 89h-108v146h298v-381
h-157v98h-2q-10 -36 -61 -74t-125 -38z" />
    <glyph glyph-name="H" unicode="H" horiz-adv-x="784" 
d="M69 0v740h200v-275h246v275h200v-740h-200v299h-246v-299h-200z" />
    <glyph glyph-name="I" unicode="I" horiz-adv-x="350" 
d="M75 0v740h200v-740h-200z" />
    <glyph glyph-name="J" unicode="J" horiz-adv-x="550" 
d="M232 -14q-78 0 -128 18.5t-96 52.5l101 135q59 -48 111 -48q78 0 78 116v480h200v-515q0 -239 -266 -239z" />
    <glyph glyph-name="K" unicode="K" horiz-adv-x="738" 
d="M69 0v740h200v-268l204 268h232l-249 -292l271 -448h-226l-175 296l-57 -66v-230h-200z" />
    <glyph glyph-name="L" unicode="L" horiz-adv-x="595" 
d="M69 0v740h200v-579h311v-161h-511z" />
    <glyph glyph-name="M" unicode="M" horiz-adv-x="923" 
d="M69 0v740h265l130 -502h2l117 502h271v-740h-191v458h-2q-14 -86 -40 -180l-78 -278h-176l-76 278q-26 90 -42 190h-2v-468h-178z" />
    <glyph glyph-name="N" unicode="N" horiz-adv-x="791" 
d="M69 0v740h197l271 -415h2v415h183v-740h-185l-283 414h-2v-414h-183z" />
    <glyph glyph-name="O" unicode="O" horiz-adv-x="795" 
d="M398 -14q-70 0 -133 22.5t-115.5 67t-84 120.5t-31.5 174t31.5 174t84 120.5t115.5 67t133 22.5q69 0 132 -22.5t115.5 -67t84 -120.5t31.5 -174t-31.5 -174t-84 -120.5t-115.5 -67t-132 -22.5zM398 146q77 0 120 60.5t43 163.5t-43 161t-120 58q-78 0 -121 -58t-43 -161
t43 -163.5t121 -60.5z" />
    <glyph glyph-name="P" unicode="P" horiz-adv-x="690" 
d="M69 0v740h277q53 0 94.5 -5t85.5 -21t73.5 -42.5t48 -73.5t18.5 -110t-20 -110t-50.5 -73.5t-75 -42.5t-85 -21t-89.5 -5h-79v-236h-198zM267 388h86q66 0 92 24.5t26 70.5t-26 70.5t-92 24.5h-86v-190z" />
    <glyph glyph-name="Q" unicode="Q" horiz-adv-x="795" 
d="M535 -203q-111 0 -179.5 57.5t-72.5 147.5q-111 32 -181 124.5t-70 243.5q0 98 31.5 174t84 120.5t115.5 67t133 22.5q69 0 132 -22.5t115.5 -67t84 -120.5t31.5 -174q0 -159 -77 -253t-196 -121q4 -8 9 -14t12.5 -10.5t12.5 -8t16 -5.5l16.5 -3t19.5 -1.5t19 -0.5h22.5
h22.5h51v-156h-152zM396 146q77 0 120 60.5t43 163.5t-43 161t-120 58q-78 0 -121 -58t-43 -161t43 -163.5t121 -60.5z" />
    <glyph glyph-name="R" unicode="R" horiz-adv-x="719" 
d="M69 0v740h289q150 0 228 -56.5t78 -184.5q0 -166 -146 -216l157 -283h-212l-143 257h-55v-257h-196zM265 409h86q62 0 90 19.5t28 65.5t-27.5 65t-90.5 19h-86v-169z" />
    <glyph glyph-name="S" unicode="S" horiz-adv-x="709" 
d="M360 -14q-223 0 -333 177l148 92q33 -53 84.5 -82.5t109.5 -29.5q107 0 107 64q0 32 -33 49.5t-99 33.5q-120 31 -162 51q-120 57 -120 179q0 111 76.5 172.5t205.5 61.5q191 0 310 -145l-134 -110q-32 39 -81.5 66t-95.5 27q-86 0 -86 -54q0 -33 32.5 -51t98.5 -34
l54.5 -13.5t53.5 -16t55 -22t45.5 -28.5t40.5 -38.5t24 -50t10 -63.5q0 -99 -76 -167t-235 -68z" />
    <glyph glyph-name="T" unicode="T" horiz-adv-x="660" 
d="M230 0v574h-213v166h626v-166h-213v-574h-200z" />
    <glyph glyph-name="U" unicode="U" horiz-adv-x="729" 
d="M365 -11q-311 0 -311 308v443h200v-442q0 -77 26.5 -112.5t86.5 -35.5q59 0 85.5 35.5t26.5 112.5v442h196v-443q0 -308 -310 -308z" />
    <glyph glyph-name="V" unicode="V" horiz-adv-x="714" 
d="M262 -3l-252 743h202l148 -481h2l156 481h186l-252 -743h-190z" />
    <glyph glyph-name="W" unicode="W" horiz-adv-x="969" 
d="M211 0l-197 740h201l63 -291q23 -92 32 -153h2q7 52 30 152l61 292h181l66 -293q25 -101 33 -151h2q4 35 28 149l59 295h183l-192 -740h-167l-101 463h-2l-112 -463h-170z" />
    <glyph glyph-name="X" unicode="X" horiz-adv-x="752" 
d="M32 0l229 389l-213 351h228l111 -195l102 195h205l-206 -353l232 -387h-223l-131 226l-123 -226h-211z" />
    <glyph glyph-name="Y" unicode="Y" horiz-adv-x="721" 
d="M260 0v309l-258 431h206l153 -262l154 262h204l-259 -431v-309h-200z" />
    <glyph glyph-name="Z" unicode="Z" horiz-adv-x="675" 
d="M25 0v137l362 437h-338v166h592v-142l-352 -437h352v-161h-616z" />
    <glyph glyph-name="bracketleft" unicode="[" horiz-adv-x="466" 
d="M62 -200v940h383v-136h-184v-668h184v-136h-383z" />
    <glyph glyph-name="backslash" unicode="\" horiz-adv-x="638" 
d="M433 0l-430 740h202l430 -740h-202z" />
    <glyph glyph-name="bracketright" unicode="]" horiz-adv-x="466" 
d="M21 -200v136h184v668h-184v136h383v-940h-383z" />
    <glyph glyph-name="asciicircum" unicode="^" horiz-adv-x="570" 
d="M91 597l129 176h130l129 -176h-111l-84 64l-82 -64h-111z" />
    <glyph glyph-name="underscore" unicode="_" horiz-adv-x="500" 
d="M0 -171v134h500v-134h-500z" />
    <glyph glyph-name="grave" unicode="`" horiz-adv-x="500" 
d="M230 592l-152 181h190l93 -181h-131z" />
    <glyph glyph-name="a" unicode="a" 
d="M170 -8q-63 0 -108 39t-45 113q0 91 84 143.5t247 59.5v7q0 45 -59 45q-83 0 -165 -58l-81 112q104 93 277 93q117 0 169 -55t52 -170v-191q0 -93 15 -130h-196q-12 38 -12 78q-69 -86 -178 -86zM254 139q61 0 94 31v76q-138 -4 -138 -69q0 -38 44 -38z" />
    <glyph glyph-name="b" unicode="b" horiz-adv-x="636" 
d="M409 -8q-100 0 -157 66v-58h-198v740h198v-287q62 93 159 93q93 0 146.5 -71.5t53.5 -206.5t-54 -205.5t-148 -70.5zM334 139q79 0 79 128q0 56 -17.5 86.5t-63.5 30.5q-43 0 -80 -39v-172q38 -34 82 -34z" />
    <glyph glyph-name="c" unicode="c" horiz-adv-x="564" 
d="M300 -11q-40 0 -77 7.5t-74 27t-64 50t-43.5 80t-16.5 113.5t18.5 114.5t47 80.5t67 49.5t75 27t74.5 7.5q108 0 163 -45.5t82 -124.5l-166 -52q-12 46 -31.5 63t-49.5 17q-82 0 -82 -138q0 -66 17 -103t63 -37q65 0 87 86l164 -55q-65 -168 -254 -168z" />
    <glyph glyph-name="d" unicode="d" horiz-adv-x="636" 
d="M225 -8q-94 0 -147 68t-53 202q0 136 54.5 210t147.5 74q105 0 157 -74v268h198v-610q0 -94 16 -130h-202q-12 16 -12 80q-59 -88 -159 -88zM304 139q43 0 80 39v172q-38 34 -82 34q-79 0 -79 -121q0 -124 81 -124z" />
    <glyph glyph-name="e" unicode="e" 
d="M314 -11q-59 0 -108 13.5t-91 43.5t-66 86.5t-24 134.5q0 62 19 111.5t48.5 80t68 51t75 28.5t71.5 8q258 0 258 -305v-30h-343q7 -49 33.5 -68t73.5 -19q72 0 154 49l71 -120q-99 -64 -240 -64zM224 324h166q-6 46 -26.5 65t-57.5 19q-65 0 -82 -84z" />
    <glyph glyph-name="f" unicode="f" horiz-adv-x="435" 
d="M105 0v394h-87v142h87v20q0 31 3 54t15 50.5t32.5 44.5t58.5 28.5t90 11.5q91 0 121 -9v-135q-18 6 -52 6q-17 0 -26.5 -1.5t-21 -6.5t-17 -18t-5.5 -33v-12h116v-142h-116v-394h-198z" />
    <glyph glyph-name="g" unicode="g" horiz-adv-x="635" 
d="M270 -200q-150 0 -215 29.5t-65 86.5q0 60 84 102q-32 24 -32 62q0 66 83 121q-91 52 -91 154q0 83 65.5 137t186.5 54q124 0 190 -59q28 25 68.5 40.5t75.5 17.5v-147q-46 0 -88 -9q2 -18 2 -34q0 -83 -63.5 -137t-184.5 -54q-38 0 -80 7q-8 -13 -8 -20q0 -9 7.5 -13.5
t16.5 -5.5t28 -2l66 -2q155 -4 219.5 -41t64.5 -118q0 -83 -91.5 -126t-238.5 -43zM289 269q34 0 52 22t18 56t-18 56t-52 22t-52 -22t-18 -56t18 -56t52 -22zM304 -105q125 0 125 40q0 15 -7 21.5t-37.5 12t-96.5 7.5l-76 3q-19 0 -37 3q-6 -17 -6 -29q0 -32 31 -45
t104 -13z" />
    <glyph glyph-name="h" unicode="h" horiz-adv-x="633" 
d="M54 0v740h198v-287q22 36 67 64.5t111 28.5q69 0 111.5 -37t42.5 -118v-391h-198v326q0 58 -45 58q-42 0 -89 -38v-346h-198z" />
    <glyph glyph-name="i" unicode="i" horiz-adv-x="316" 
d="M59 588v152h198v-152h-198zM59 0v536h198v-536h-198z" />
    <glyph glyph-name="j" unicode="j" horiz-adv-x="316" 
d="M59 588v152h198v-152h-198zM58 -204q-91 0 -121 9v130q18 -6 52 -6q37 0 53.5 18.5t16.5 60.5v528h198v-572q0 -27 -3 -47t-15 -44t-32.5 -40t-58.5 -26.5t-90 -10.5z" />
    <glyph glyph-name="k" unicode="k" horiz-adv-x="608" 
d="M54 0v740h198v-371l131 167h210l-174 -204l180 -332h-203l-99 188l-45 -53v-135h-198z" />
    <glyph glyph-name="l" unicode="l" horiz-adv-x="316" 
d="M59 0v740h198v-740h-198z" />
    <glyph glyph-name="m" unicode="m" horiz-adv-x="939" 
d="M54 0v536h198v-83q22 35 65.5 64t101.5 29q122 0 146 -93q22 35 65.5 64t101.5 29q78 0 118 -45t40 -120v-381h-198v326q0 31 -8 44.5t-33 13.5q-33 0 -80 -38v-346h-198v326q0 31 -8 44.5t-33 13.5q-33 0 -80 -38v-346h-198z" />
    <glyph glyph-name="n" unicode="n" horiz-adv-x="633" 
d="M55 0v536h198v-83q22 36 67 64.5t111 28.5q69 0 111.5 -37t42.5 -118v-391h-198v326q0 58 -45 58q-42 0 -89 -38v-346h-198z" />
    <glyph glyph-name="o" unicode="o" horiz-adv-x="622" 
d="M311 -11q-41 0 -79.5 7.5t-77 27t-66.5 50t-45.5 80.5t-17.5 113q0 80 25.5 137t69.5 86.5t91 42.5t100 13t100 -13t90.5 -42.5t69.5 -86.5t26 -137q0 -63 -17.5 -113t-45.5 -80.5t-66.5 -50t-77 -27t-79.5 -7.5zM311 126q88 0 88 140q0 138 -88 138t-88 -138
q0 -140 88 -140z" />
    <glyph glyph-name="p" unicode="p" horiz-adv-x="636" 
d="M54 -200v736h198v-83q62 93 159 93q93 0 146.5 -71.5t53.5 -206.5t-54 -205.5t-148 -70.5q-100 0 -157 66v-258h-198zM334 139q79 0 79 128q0 56 -17.5 86.5t-63.5 30.5q-43 0 -80 -39v-172q38 -34 82 -34z" />
    <glyph glyph-name="q" unicode="q" horiz-adv-x="636" 
d="M384 -200v275q-62 -83 -159 -83q-94 0 -147 68t-53 202q0 136 54.5 210t147.5 74q105 0 157 -74v64h198v-736h-198zM304 139q43 0 80 39v172q-38 34 -82 34q-79 0 -79 -121q0 -124 81 -124z" />
    <glyph glyph-name="r" unicode="r" horiz-adv-x="435" 
d="M54 0v536h198v-83h1q58 93 167 93h2v-175q-32 4 -50 4q-59 0 -120 -49v-326h-198z" />
    <glyph glyph-name="s" unicode="s" horiz-adv-x="545" 
d="M280 -11q-160 0 -266 77l73 111q37 -29 91 -47t101 -18q64 0 64 35q0 20 -18.5 29.5t-64.5 15.5q-36 5 -58.5 9.5t-57 17t-54.5 29.5t-35 47t-15 70q0 87 62 134t157 47q83 0 140.5 -18t109.5 -56l-73 -109q-92 54 -158 54q-55 0 -55 -34q0 -18 19.5 -26.5t62.5 -14.5
q30 -4 49 -7.5t48 -11t48 -18.5t38 -27.5t28.5 -41.5t9.5 -56q0 -51 -20.5 -89.5t-56.5 -60t-78 -31.5t-91 -10z" />
    <glyph glyph-name="t" unicode="t" horiz-adv-x="452" 
d="M298 -7q-66 0 -107.5 10.5t-60.5 35t-25 51t-6 71.5v233h-87v142h87v180h198v-180h137v-142h-137v-189q0 -43 14 -57t56 -14q34 0 52 6v-138q-30 -9 -121 -9z" />
    <glyph glyph-name="u" unicode="u" horiz-adv-x="633" 
d="M203 -11q-69 0 -111.5 37t-42.5 118v392h198v-332q0 -58 45 -58q42 0 89 38v352h198v-536h-198v82q-22 -36 -67 -64.5t-111 -28.5z" />
    <glyph glyph-name="v" unicode="v" horiz-adv-x="552" 
d="M176 0l-189 536h203l94 -319h2l95 319h184l-189 -536h-200z" />
    <glyph glyph-name="w" unicode="w" horiz-adv-x="786" 
d="M145 0l-153 536h198l35 -163q17 -71 29 -156h2q12 73 33 161l36 158h150l39 -160q17 -64 34 -159h2q13 77 33 157l38 162h173l-153 -536h-183l-65 281h-2l-63 -281h-183z" />
    <glyph glyph-name="x" unicode="x" horiz-adv-x="563" 
d="M3 0l180 276l-167 260h206l74 -124l66 124h198l-170 -261l177 -275h-206l-82 137l-78 -137h-198z" />
    <glyph glyph-name="y" unicode="y" horiz-adv-x="574" 
d="M164 -205q-102 0 -178 22l41 152q60 -16 113 -16q39 0 51 31l5 13l-204 539h203l99 -306h2l99 306h191l-224 -590q-28 -74 -74 -112.5t-124 -38.5z" />
    <glyph glyph-name="z" unicode="z" horiz-adv-x="540" 
d="M24 0v99l232 295h-216v142h461v-103l-233 -295h255v-138h-499z" />
    <glyph glyph-name="braceleft" unicode="{" horiz-adv-x="466" 
d="M279 -200q-68 0 -107.5 43t-39.5 110v128q0 70 -25.5 95t-85.5 25v138q60 0 85.5 25t25.5 95v128q0 67 39.5 110t107.5 43h174v-136h-44q-78 0 -78 -80v-94q0 -131 -85 -159v-2q85 -28 85 -159v-94q0 -80 78 -80h44v-136h-174z" />
    <glyph glyph-name="bar" unicode="|" horiz-adv-x="422" 
d="M113 -200v940h196v-940h-196z" />
    <glyph glyph-name="braceright" unicode="}" horiz-adv-x="466" 
d="M13 -200v136h44q78 0 78 80v114q0 68 20 96t65 43v2q-45 15 -65 43t-20 96v114q0 80 -78 80h-44v136h194q67 0 97 -33t30 -100v-148q0 -70 25.5 -95t85.5 -25v-138q-60 0 -85.5 -25t-25.5 -95v-148q0 -67 -30 -100t-97 -33h-194z" />
    <glyph glyph-name="asciitilde" unicode="~" horiz-adv-x="530" 
d="M343 355q-34 0 -60.5 14t-45.5 28t-37 14q-41 0 -41 -54h-104q0 179 132 179q34 0 60.5 -14t45.5 -28t37 -14q41 0 41 54h104q0 -179 -132 -179z" />
    <glyph glyph-name="nbspace" unicode="&#xa0;" horiz-adv-x="143" 
 />
    <glyph glyph-name="exclamdown" unicode="&#xa1;" horiz-adv-x="375" 
d="M79 570v170h207v-170h-207zM58 0l48 493h153l48 -493h-249z" />
    <glyph glyph-name="cent" unicode="&#xa2;" horiz-adv-x="571" 
d="M167 17q-142 67 -142 250q0 61 18 110t46.5 80t66.5 51.5t75 29t75 8.5q14 0 21 -1l28 93h96l-34 -109q97 -35 139 -153l-151 -52q-10 38 -36 61l-80 -262q4 -1 13 -1q30 0 61.5 21.5t45.5 68.5l149 -55q-28 -71 -90.5 -119.5t-168.5 -48.5q-21 0 -44 3l-37 -121h-96z
M290 406q-39 -5 -61.5 -41t-22.5 -99q0 -58 13 -90z" />
    <glyph glyph-name="sterling" unicode="&#xa3;" horiz-adv-x="722" 
d="M233 322h-142v100h80q-35 63 -35 119q0 90 66.5 151.5t171.5 61.5q68 0 116.5 -16.5t77 -48.5t43.5 -62.5t27 -75.5l-170 -39q-10 43 -28 67t-56 24q-26 0 -42 -16t-16 -45q0 -7 0.5 -14t2.5 -14.5t3.5 -12.5t5.5 -13.5t5.5 -12.5t7 -13.5t7 -12.5t8 -14t7.5 -13h180
v-100h-132q14 -44 14 -96q0 -46 -24 -94q27 -10 50 -10q38 0 56.5 19t19.5 75h167q-3 -48 -11 -83.5t-28.5 -71.5t-62.5 -55.5t-103 -19.5q-99 0 -176 50q-74 -50 -162 -50q-67 0 -111.5 31t-44.5 94q0 66 46 102t107 36q52 0 109 -31q-3 48 -34 104zM233 111q-46 39 -71 39
q-17 0 -27 -9.5t-10 -24.5q0 -16 10 -26t29 -10q41 0 69 31z" />
    <glyph glyph-name="currency" unicode="&#xa4;" horiz-adv-x="745" 
d="M118 388h-97v100h107q25 132 106 199t197 67q117 0 182.5 -50t98.5 -146l-167 -63q-19 55 -42.5 80t-67.5 25q-88 0 -114 -112h132v-100h-142v-18v-37h142v-101h-130q24 -96 114 -96q37 0 63.5 27.5t45.5 89.5l171 -54q-69 -213 -281 -213q-115 0 -195 61t-109 185h-111
v101h98q-1 12 -1 37v18z" />
    <glyph glyph-name="yen" unicode="&#xa5;" horiz-adv-x="711" 
d="M255 0v77h-174v101h174v55h-174v100h171l-243 407h206l141 -242l142 242h204l-245 -407h174v-100h-176v-55h176v-101h-176v-77h-200z" />
    <glyph glyph-name="brokenbar" unicode="&#xa6;" horiz-adv-x="422" 
d="M113 331v409h196v-409h-196zM113 -200v409h196v-409h-196z" />
    <glyph glyph-name="section" unicode="&#xa7;" horiz-adv-x="604" 
d="M299 -200q-188 0 -239 140l137 65q33 -78 93 -78q31 0 42 14t11 38q0 26 -27.5 47t-84.5 51l-12 6l-42.5 24t-42.5 29.5t-42 39.5t-27.5 48.5t-12.5 61.5q0 48 24 87.5t58 64.5q-54 52 -54 127q0 82 60 135.5t164 53.5q193 0 244 -140l-137 -65q-15 34 -40.5 56t-57.5 22
q-58 0 -58 -52q0 -7 2 -13t7 -12.5t9.5 -11.5t13.5 -11.5l15.5 -11t19 -11.5t19.5 -10.5l21.5 -11t21.5 -11.5q32 -17 54.5 -31t52 -39.5t45 -59t15.5 -73.5q0 -93 -83 -153q50 -52 50 -126q0 -83 -57.5 -136t-161.5 -53zM376 181q18 23 18 44q0 35 -21 56.5t-91 60.5
l-55 31q-18 -23 -18 -44q0 -35 21 -56.5t91 -60.5z" />
    <glyph glyph-name="dieresis" unicode="&#xa8;" horiz-adv-x="540" 
d="M301 585v175h160v-175h-160zM74 585v175h160v-175h-160z" />
    <glyph glyph-name="copyright" unicode="&#xa9;" horiz-adv-x="868" 
d="M432 -14q-164 0 -273 109t-109 273t111 275t275 111t273 -109t109 -273t-111 -275t-275 -111zM436 68q128 0 210 84.5t82 215.5q0 132 -83.5 218t-212.5 86q-128 0 -210 -84.5t-82 -215.5q0 -132 83.5 -218t212.5 -86zM430 155q-82 0 -130.5 55.5t-48.5 159.5
q0 105 48.5 160.5t134.5 55.5q72 0 114.5 -36t53.5 -96l-107 -28q-8 29 -20.5 44t-38.5 15q-32 0 -48.5 -30.5t-16.5 -84.5q0 -112 64 -112q49 0 61 68l110 -30q-19 -68 -59 -104.5t-117 -36.5z" />
    <glyph glyph-name="ordfeminine" unicode="&#xaa;" horiz-adv-x="460" 
d="M142 357q-44 0 -75.5 26t-31.5 73q0 140 231 151v5q0 31 -41 31q-59 0 -115 -40l-57 78q71 65 194 65q81 0 118 -38t37 -119v-134q0 -67 10 -91h-137q-9 29 -9 55q-48 -62 -124 -62zM201 459q41 0 65 24v53q-96 -3 -96 -50q0 -27 31 -27z" />
    <glyph glyph-name="guillemotleft" unicode="&#xab;" horiz-adv-x="679" 
d="M475 0l-174 268l174 268h186l-165 -268l165 -268h-186zM189 0l-174 268l174 268h186l-165 -268l165 -268h-186z" />
    <glyph glyph-name="logicalnot" unicode="&#xac;" horiz-adv-x="760" 
d="M122 112l-11 -1v139l25 -2l5 48l-131 -30v205l131 -30l-5 50l-25 -2v139l11 -1l-1 10h139l-2 -24l49 -5l-30 132h205l-30 -132l49 5l-2 24h139l-1 -10l11 1v-139l-25 2l-5 -50l132 30v-205l-132 30l5 -48l25 2v-139l-11 1l1 -12h-139l3 26l-50 5l30 -131h-205l30 131
l-50 -5l3 -26h-139zM512 502l-60 6v-67h66zM307 441v67l-60 -6l-6 -61h66zM452 296v-65l60 6l6 59h-66zM307 296h-66l6 -59l60 -6v65z" />
    <glyph glyph-name="registered" unicode="&#xae;" horiz-adv-x="868" 
d="M432 -14q-164 0 -273 109t-109 273t111 275t275 111t273 -109t109 -273t-111 -275t-275 -111zM436 68q128 0 210 84.5t82 215.5q0 132 -83.5 218t-212.5 86q-128 0 -210 -84.5t-82 -215.5q0 -132 83.5 -218t212.5 -86zM277 171v415h169q80 0 124 -36t44 -108
q0 -86 -69 -123l73 -148h-126l-63 132h-33v-132h-119zM396 388h43q58 0 58 47q0 46 -58 46h-43v-93z" />
    <glyph glyph-name="macron" unicode="&#xaf;" horiz-adv-x="500" 
d="M74 603v136h352v-136h-352z" />
    <glyph glyph-name="degree" unicode="&#xb0;" horiz-adv-x="420" 
d="M210 415q-74 0 -122.5 47.5t-48.5 120.5t48.5 121t122.5 48t122.5 -47t48.5 -120t-48.5 -121.5t-122.5 -48.5zM210 504q32 0 51.5 21.5t19.5 58.5t-19.5 58t-51.5 21t-51.5 -21t-19.5 -58t19.5 -58.5t51.5 -21.5z" />
    <glyph glyph-name="plusminus" unicode="&#xb1;" horiz-adv-x="1026" 
d="M105 0v394h-87v142h87v20q0 189 174 189q81 0 111 -9v-133q-12 4 -42 4q-45 0 -45 -59v-12h134v20q0 189 174 189q81 0 111 -9v-133q-12 4 -42 4q-45 0 -45 -59v-12h91v-142h-91v-394h-198v394h-134v-394h-198zM769 0v740h198v-740h-198z" />
    <glyph glyph-name="twosuperior" unicode="&#xb2;" horiz-adv-x="491" 
d="M51 258v29q0 31 3.5 53.5t16 51.5t41.5 57.5t74 57.5l27.5 17l24 15t17 12t14 13.5t6.5 13.5t3 17q0 26 -32 26q-19 0 -46.5 -17.5t-48.5 -50.5l-103 77q41 61 89.5 90.5t115.5 29.5q85 0 131.5 -40.5t46.5 -111.5q0 -98 -116 -160q-61 -32 -77 -58h196v-122h-383z" />
    <glyph glyph-name="threesuperior" unicode="&#xb3;" horiz-adv-x="491" 
d="M241 250q-136 0 -206 99l91 82q46 -57 100 -57q59 0 59 40q0 23 -18 32.5t-59 9.5h-44v106h45q67 0 67 35q0 26 -37 26q-58 0 -109 -44l-79 97q84 74 202 74q85 0 130.5 -34t45.5 -100q0 -75 -68 -99q85 -26 85 -108q0 -79 -54.5 -119t-150.5 -40z" />
    <glyph glyph-name="acute" unicode="&#xb4;" horiz-adv-x="500" 
d="M139 592l93 181h190l-152 -181h-131z" />
    <glyph glyph-name="mu" unicode="&#xb5;" horiz-adv-x="638" 
d="M54 -200v736h198v-327q0 -58 45 -58q42 0 89 38v347h198v-536h-198v82q-35 -56 -101 -80q-15 -6 -33 -9v-193h-198z" />
    <glyph glyph-name="paragraph" unicode="&#xb6;" horiz-adv-x="645" 
d="M279 -200v503q-117 2 -180 58.5t-63 158.5q0 95 61 157.5t168 62.5h348v-940h-128v795h-78v-795h-128z" />
    <glyph glyph-name="periodcentered" unicode="&#xb7;" horiz-adv-x="297" 
d="M40 254v180h217v-180h-217z" />
    <glyph glyph-name="cedilla" unicode="&#xb8;" horiz-adv-x="500" 
d="M268 -205q-100 0 -158 38l33 55q45 -30 109 -30q40 0 40 28q0 24 -28 24q-19 0 -38 -15l-45 22l26 83h76l-10 -42q23 15 69 15q30 0 51.5 -19t21.5 -52q0 -47 -42 -77t-105 -30z" />
    <glyph glyph-name="onesuperior" unicode="&#xb9;" horiz-adv-x="421" 
d="M64 255v122h79v216q-33 -11 -78 -11v127q64 3 91 30h143v-362h68v-122h-303z" />
    <glyph glyph-name="ordmasculine" unicode="&#xba;" horiz-adv-x="481" 
d="M241 357q-37 0 -70 9.5t-64 30t-49 60.5t-18 95q0 56 18 96t49 60.5t64 29.5t70 9t69.5 -9t63.5 -29.5t49 -60.5t18 -96q0 -55 -18 -95t-48.5 -60.5t-63.5 -30t-70 -9.5zM241 453q61 0 61 98q0 97 -61 97q-62 0 -62 -97q0 -98 62 -98z" />
    <glyph glyph-name="guillemotright" unicode="&#xbb;" horiz-adv-x="679" 
d="M304 0l165 268l-165 268h186l174 -268l-174 -268h-186zM18 0l165 268l-165 268h186l174 -268l-174 -268h-186z" />
    <glyph glyph-name="onequarter" unicode="&#xbc;" horiz-adv-x="1109" 
d="M64 255v122h79v216q-33 -11 -78 -11v127q64 3 91 30h143v-362h68v-122h-303zM255 0l442 740h168l-442 -740h-168zM844 0v94h-216v97l212 293h159v-273h75v-117h-75v-94h-155zM783 211h64v93z" />
    <glyph glyph-name="onehalf" unicode="&#xbd;" horiz-adv-x="1139" 
d="M64 255v122h79v216q-33 -11 -78 -11v127q64 3 91 30h143v-362h68v-122h-303zM255 0l442 740h168l-442 -740h-168zM702 0v29q0 31 3.5 53.5t16 51.5t41.5 57.5t74 57.5l27.5 17l24 15t17 12t14 13.5t6.5 13.5t3 17q0 26 -32 26q-19 0 -46.5 -17.5t-48.5 -50.5l-103 77
q41 61 89.5 90.5t115.5 29.5q85 0 131.5 -40.5t46.5 -111.5q0 -98 -116 -160q-61 -32 -77 -58h196v-122h-383z" />
    <glyph glyph-name="threequarters" unicode="&#xbe;" horiz-adv-x="1153" 
d="M241 250q-136 0 -206 99l91 82q46 -57 100 -57q59 0 59 40q0 23 -18 32.5t-59 9.5h-44v106h45q67 0 67 35q0 26 -37 26q-58 0 -109 -44l-79 97q84 74 202 74q85 0 130.5 -34t45.5 -100q0 -75 -68 -99q85 -26 85 -108q0 -79 -54.5 -119t-150.5 -40zM299 0l442 740h168
l-442 -740h-168zM888 0v94h-216v97l212 293h159v-273h75v-117h-75v-94h-155zM827 211h64v93z" />
    <glyph glyph-name="questiondown" unicode="&#xbf;" horiz-adv-x="617" 
d="M222 570v170h207v-170h-207zM283 -14q-117 0 -180 51t-63 133q0 64 30 103t84 65q28 14 44 25t26.5 20.5t14 26.5t4.5 30t1 45v11h163q4 -30 4 -75q0 -96 -112 -153q-35 -18 -50 -35.5t-15 -45.5q0 -20 18.5 -33t52.5 -13q42 0 91 24.5t78 56.5l116 -112
q-117 -124 -307 -124z" />
    <glyph glyph-name="Agrave" unicode="&#xc0;" horiz-adv-x="730" 
d="M10 0l262 743h186l262 -743h-202l-45 138h-233l-48 -138h-182zM287 280h141l-68 205h-2zM315 782l-152 181h190l93 -181h-131z" />
    <glyph glyph-name="Aacute" unicode="&#xc1;" horiz-adv-x="730" 
d="M10 0l262 743h186l262 -743h-202l-45 138h-233l-48 -138h-182zM287 280h141l-68 205h-2zM284 782l93 181h190l-152 -181h-131z" />
    <glyph glyph-name="Acircumflex" unicode="&#xc2;" horiz-adv-x="730" 
d="M10 0l262 743h186l262 -743h-202l-45 138h-233l-48 -138h-182zM287 280h141l-68 205h-2zM171 787l129 176h130l129 -176h-111l-84 64l-82 -64h-111z" />
    <glyph glyph-name="Atilde" unicode="&#xc3;" horiz-adv-x="730" 
d="M10 0l262 743h186l262 -743h-202l-45 138h-233l-48 -138h-182zM287 280h141l-68 205h-2zM443 770q-34 0 -60.5 14t-45.5 28t-37 14q-41 0 -41 -54h-104q0 179 132 179q34 0 60.5 -14t45.5 -28t37 -14q41 0 41 54h104q0 -179 -132 -179z" />
    <glyph glyph-name="Adieresis" unicode="&#xc4;" horiz-adv-x="730" 
d="M10 0l262 743h186l262 -743h-202l-45 138h-233l-48 -138h-182zM287 280h141l-68 205h-2zM396 775v175h160v-175h-160zM169 775v175h160v-175h-160z" />
    <glyph glyph-name="Aring" unicode="&#xc5;" horiz-adv-x="730" 
d="M464 726l256 -726h-202l-45 138h-233l-48 -138h-182l256 726q-18 29 -18 64q0 50 33.5 83t83.5 33t83.5 -33t33.5 -83q0 -37 -18 -64zM365 745q19 0 31 12.5t12 32.5q0 19 -12 31.5t-31 12.5t-31 -12.5t-12 -31.5q0 -20 12 -32.5t31 -12.5zM287 280h141l-68 205h-2z" />
    <glyph glyph-name="AE" unicode="&#xc6;" horiz-adv-x="1106" 
d="M10 0l421 740h625v-166h-328v-120h234v-156h-234v-137h345v-161h-543v198h-209l-110 -198h-201zM402 343h128v228h-1z" />
    <glyph glyph-name="Ccedilla" unicode="&#xc7;" horiz-adv-x="741" 
d="M388 -205q-100 0 -158 38l33 55q45 -30 109 -30q40 0 40 28q0 24 -28 24q-19 0 -38 -15l-45 22l23 72q-133 17 -211.5 111.5t-78.5 269.5q0 192 97.5 288t249.5 96q258 0 313 -236l-189 -56q-17 62 -44.5 94.5t-80.5 32.5q-73 0 -109.5 -57t-36.5 -162t37.5 -164.5
t110.5 -59.5q56 0 85.5 34t47.5 107l189 -42q-29 -118 -100 -186t-204 -73l-7 -28q23 15 69 15q30 0 51.5 -19t21.5 -52q0 -47 -42 -77t-105 -30z" />
    <glyph glyph-name="Egrave" unicode="&#xc8;" horiz-adv-x="645" 
d="M69 0v740h528v-166h-328v-120h234v-156h-234v-137h345v-161h-545zM302 782l-152 181h190l93 -181h-131z" />
    <glyph glyph-name="Eacute" unicode="&#xc9;" horiz-adv-x="645" 
d="M69 0v740h528v-166h-328v-120h234v-156h-234v-137h345v-161h-545zM221 782l93 181h190l-152 -181h-131z" />
    <glyph glyph-name="Ecircumflex" unicode="&#xca;" horiz-adv-x="645" 
d="M69 0v740h528v-166h-328v-120h234v-156h-234v-137h345v-161h-545zM138 787l129 176h130l129 -176h-111l-84 64l-82 -64h-111z" />
    <glyph glyph-name="Edieresis" unicode="&#xcb;" horiz-adv-x="645" 
d="M69 0v740h528v-166h-328v-120h234v-156h-234v-137h345v-161h-545zM367 775v175h160v-175h-160zM140 775v175h160v-175h-160z" />
    <glyph glyph-name="Igrave" unicode="&#xcc;" horiz-adv-x="350" 
d="M75 0v740h200v-740h-200zM125 782l-152 181h190l93 -181h-131z" />
    <glyph glyph-name="Iacute" unicode="&#xcd;" horiz-adv-x="350" 
d="M75 0v740h200v-740h-200zM94 782l93 181h190l-152 -181h-131z" />
    <glyph glyph-name="Icircumflex" unicode="&#xce;" horiz-adv-x="350" 
d="M75 0v740h200v-740h-200zM-19 787l129 176h130l129 -176h-111l-84 64l-82 -64h-111z" />
    <glyph glyph-name="Idieresis" unicode="&#xcf;" horiz-adv-x="350" 
d="M75 0v740h200v-740h-200zM206 775v175h160v-175h-160zM-21 775v175h160v-175h-160z" />
    <glyph glyph-name="Eth" unicode="&#xd0;" horiz-adv-x="753" 
d="M69 0v300h-59v146h59v294h243q87 0 157 -18t128 -59t90 -115t32 -178q0 -102 -32.5 -176.5t-90.5 -115.5t-128 -59.5t-156 -18.5h-243zM267 161h56q111 0 153.5 48.5t42.5 163.5q0 106 -43.5 153.5t-154.5 47.5h-54v-128h147v-146h-147v-139z" />
    <glyph glyph-name="Ntilde" unicode="&#xd1;" horiz-adv-x="791" 
d="M69 0v740h197l271 -415h2v415h183v-740h-185l-283 414h-2v-414h-183zM475 770q-34 0 -60.5 14t-45.5 28t-37 14q-41 0 -41 -54h-104q0 179 132 179q34 0 60.5 -14t45.5 -28t37 -14q41 0 41 54h104q0 -179 -132 -179z" />
    <glyph glyph-name="Ograve" unicode="&#xd2;" horiz-adv-x="795" 
d="M398 -14q-70 0 -133 22.5t-115.5 67t-84 120.5t-31.5 174t31.5 174t84 120.5t115.5 67t133 22.5q69 0 132 -22.5t115.5 -67t84 -120.5t31.5 -174t-31.5 -174t-84 -120.5t-115.5 -67t-132 -22.5zM398 146q77 0 120 60.5t43 163.5t-43 161t-120 58q-78 0 -121 -58t-43 -161
t43 -163.5t121 -60.5zM367 782l-152 181h190l93 -181h-131z" />
    <glyph glyph-name="Oacute" unicode="&#xd3;" horiz-adv-x="795" 
d="M398 -14q-70 0 -133 22.5t-115.5 67t-84 120.5t-31.5 174t31.5 174t84 120.5t115.5 67t133 22.5q69 0 132 -22.5t115.5 -67t84 -120.5t31.5 -174t-31.5 -174t-84 -120.5t-115.5 -67t-132 -22.5zM398 146q77 0 120 60.5t43 163.5t-43 161t-120 58q-78 0 -121 -58t-43 -161
t43 -163.5t121 -60.5zM296 782l93 181h190l-152 -181h-131z" />
    <glyph glyph-name="Ocircumflex" unicode="&#xd4;" horiz-adv-x="795" 
d="M398 -14q-70 0 -133 22.5t-115.5 67t-84 120.5t-31.5 174t31.5 174t84 120.5t115.5 67t133 22.5q69 0 132 -22.5t115.5 -67t84 -120.5t31.5 -174t-31.5 -174t-84 -120.5t-115.5 -67t-132 -22.5zM398 146q77 0 120 60.5t43 163.5t-43 161t-120 58q-78 0 -121 -58t-43 -161
t43 -163.5t121 -60.5zM203 787l129 176h130l129 -176h-111l-84 64l-82 -64h-111z" />
    <glyph glyph-name="Otilde" unicode="&#xd5;" horiz-adv-x="795" 
d="M398 -14q-70 0 -133 22.5t-115.5 67t-84 120.5t-31.5 174t31.5 174t84 120.5t115.5 67t133 22.5q69 0 132 -22.5t115.5 -67t84 -120.5t31.5 -174t-31.5 -174t-84 -120.5t-115.5 -67t-132 -22.5zM398 146q77 0 120 60.5t43 163.5t-43 161t-120 58q-78 0 -121 -58t-43 -161
t43 -163.5t121 -60.5zM475 770q-34 0 -60.5 14t-45.5 28t-37 14q-41 0 -41 -54h-104q0 179 132 179q34 0 60.5 -14t45.5 -28t37 -14q41 0 41 54h104q0 -179 -132 -179z" />
    <glyph glyph-name="Odieresis" unicode="&#xd6;" horiz-adv-x="795" 
d="M398 -14q-70 0 -133 22.5t-115.5 67t-84 120.5t-31.5 174t31.5 174t84 120.5t115.5 67t133 22.5q69 0 132 -22.5t115.5 -67t84 -120.5t31.5 -174t-31.5 -174t-84 -120.5t-115.5 -67t-132 -22.5zM398 146q77 0 120 60.5t43 163.5t-43 161t-120 58q-78 0 -121 -58t-43 -161
t43 -163.5t121 -60.5zM428 775v175h160v-175h-160zM201 775v175h160v-175h-160z" />
    <glyph glyph-name="multiply" unicode="&#xd7;" horiz-adv-x="650" 
d="M172 58l-115 115l152 152l-152 150l115 115l152 -150l150 150l115 -115l-149 -149l152 -150l-115 -115l-152 150z" />
    <glyph glyph-name="Oslash" unicode="&#xd8;" horiz-adv-x="795" 
d="M692 611q69 -95 69 -241q0 -98 -31.5 -174t-84 -120.5t-115.5 -67t-132 -22.5q-119 0 -210 60l-72 -81l-92 75l79 88q-69 95 -69 242q0 98 31.5 174t84 120.5t115.5 67t133 22.5q118 0 209 -60l72 81l92 -75zM240 276l254 285q-40 31 -96 31q-80 0 -124.5 -59t-44.5 -163
q0 -50 11 -94zM555 463l-255 -287q41 -33 98 -33q79 0 123.5 61.5t44.5 165.5q0 51 -11 93z" />
    <glyph glyph-name="Ugrave" unicode="&#xd9;" horiz-adv-x="729" 
d="M365 -11q-311 0 -311 308v443h200v-442q0 -77 26.5 -112.5t86.5 -35.5q59 0 85.5 35.5t26.5 112.5v442h196v-443q0 -308 -310 -308zM334 782l-152 181h190l93 -181h-131z" />
    <glyph glyph-name="Uacute" unicode="&#xda;" horiz-adv-x="729" 
d="M365 -11q-311 0 -311 308v443h200v-442q0 -77 26.5 -112.5t86.5 -35.5q59 0 85.5 35.5t26.5 112.5v442h196v-443q0 -308 -310 -308zM253 782l93 181h190l-152 -181h-131z" />
    <glyph glyph-name="Ucircumflex" unicode="&#xdb;" horiz-adv-x="729" 
d="M365 -11q-311 0 -311 308v443h200v-442q0 -77 26.5 -112.5t86.5 -35.5q59 0 85.5 35.5t26.5 112.5v442h196v-443q0 -308 -310 -308zM170 787l129 176h130l129 -176h-111l-84 64l-82 -64h-111z" />
    <glyph glyph-name="Udieresis" unicode="&#xdc;" horiz-adv-x="729" 
d="M365 -11q-311 0 -311 308v443h200v-442q0 -77 26.5 -112.5t86.5 -35.5q59 0 85.5 35.5t26.5 112.5v442h196v-443q0 -308 -310 -308zM395 775v175h160v-175h-160zM168 775v175h160v-175h-160z" />
    <glyph glyph-name="Yacute" unicode="&#xdd;" horiz-adv-x="721" 
d="M260 0v309l-258 431h206l153 -262l154 262h204l-259 -431v-309h-200zM259 782l93 181h190l-152 -181h-131z" />
    <glyph glyph-name="Thorn" unicode="&#xde;" horiz-adv-x="690" 
d="M69 0v740h200v-100h73q52 0 94.5 -5.5t87 -22t74.5 -44t49 -75t19 -110.5q0 -257 -324 -257h-73v-126h-200zM269 282h76q65 0 91.5 25t26.5 71t-26.5 71t-91.5 25h-76v-192z" />
    <glyph glyph-name="germandbls" unicode="&#xdf;" horiz-adv-x="712" 
d="M473 -11q-139 0 -206 72l84 103q43 -36 100 -36q32 0 49.5 19t17.5 49q0 26 -12 45.5t-29.5 30t-47 17t-55.5 9t-64 3.5v130q76 0 103 24t27 71q0 27 -22 48.5t-64 21.5q-53 0 -79 -26.5t-26 -88.5v-481h-195v477q0 136 78 199.5t216 63.5q128 0 201 -51.5t73 -144.5
q0 -113 -126 -156q80 -8 142 -55.5t62 -128.5q0 -106 -61 -160.5t-166 -54.5z" />
    <glyph glyph-name="agrave" unicode="&#xe0;" 
d="M170 -8q-63 0 -108 39t-45 113q0 91 84 143.5t247 59.5v7q0 45 -59 45q-83 0 -165 -58l-81 112q104 93 277 93q117 0 169 -55t52 -170v-191q0 -93 15 -130h-196q-12 38 -12 78q-69 -86 -178 -86zM254 139q61 0 94 31v76q-138 -4 -138 -69q0 -38 44 -38zM264 592l-152 181
h190l93 -181h-131z" />
    <glyph glyph-name="aacute" unicode="&#xe1;" 
d="M170 -8q-63 0 -108 39t-45 113q0 91 84 143.5t247 59.5v7q0 45 -59 45q-83 0 -165 -58l-81 112q104 93 277 93q117 0 169 -55t52 -170v-191q0 -93 15 -130h-196q-12 38 -12 78q-69 -86 -178 -86zM254 139q61 0 94 31v76q-138 -4 -138 -69q0 -38 44 -38zM193 592l93 181
h190l-152 -181h-131z" />
    <glyph glyph-name="acircumflex" unicode="&#xe2;" 
d="M170 -8q-63 0 -108 39t-45 113q0 91 84 143.5t247 59.5v7q0 45 -59 45q-83 0 -165 -58l-81 112q104 93 277 93q117 0 169 -55t52 -170v-191q0 -93 15 -130h-196q-12 38 -12 78q-69 -86 -178 -86zM254 139q61 0 94 31v76q-138 -4 -138 -69q0 -38 44 -38zM100 597l129 176
h130l129 -176h-111l-84 64l-82 -64h-111z" />
    <glyph glyph-name="atilde" unicode="&#xe3;" 
d="M170 -8q-63 0 -108 39t-45 113q0 91 84 143.5t247 59.5v7q0 45 -59 45q-83 0 -165 -58l-81 112q104 93 277 93q117 0 169 -55t52 -170v-191q0 -93 15 -130h-196q-12 38 -12 78q-69 -86 -178 -86zM254 139q61 0 94 31v76q-138 -4 -138 -69q0 -38 44 -38zM372 580
q-34 0 -60.5 14t-45.5 28t-37 14q-41 0 -41 -54h-104q0 179 132 179q34 0 60.5 -14t45.5 -28t37 -14q41 0 41 54h104q0 -179 -132 -179z" />
    <glyph glyph-name="adieresis" unicode="&#xe4;" 
d="M170 -8q-63 0 -108 39t-45 113q0 91 84 143.5t247 59.5v7q0 45 -59 45q-83 0 -165 -58l-81 112q104 93 277 93q117 0 169 -55t52 -170v-191q0 -93 15 -130h-196q-12 38 -12 78q-69 -86 -178 -86zM254 139q61 0 94 31v76q-138 -4 -138 -69q0 -38 44 -38zM325 585v175h160
v-175h-160zM98 585v175h160v-175h-160z" />
    <glyph glyph-name="aring" unicode="&#xe5;" 
d="M170 -8q-63 0 -108 39t-45 113q0 91 84 143.5t247 59.5v7q0 45 -59 45q-83 0 -165 -58l-81 112q104 93 277 93q117 0 169 -55t52 -170v-191q0 -93 15 -130h-196q-12 38 -12 78q-69 -86 -178 -86zM254 139q61 0 94 31v76q-138 -4 -138 -69q0 -38 44 -38zM294 583
q-50 0 -83.5 33.5t-33.5 83.5t33.5 83t83.5 33t83.5 -33t33.5 -83t-33.5 -83.5t-83.5 -33.5zM294 655q19 0 31 12.5t12 32.5q0 19 -12 31.5t-31 12.5t-31 -12.5t-12 -31.5q0 -20 12 -32.5t31 -12.5z" />
    <glyph glyph-name="ae" unicode="&#xe6;" horiz-adv-x="897" 
d="M170 -9q-63 0 -108 39t-45 113q0 91 84 144t247 60v7q0 45 -59 45q-83 0 -165 -58l-81 112q104 93 277 93q106 0 152 -49q26 23 66 36t77 13q38 0 70 -6t68.5 -25t61.5 -51t41.5 -89t16.5 -134v-30h-343q7 -49 33 -67t74 -18q76 0 154 47l71 -120q-99 -64 -240 -64
q-168 0 -233 106q-85 -104 -219 -104zM532 324h166q-6 46 -26.5 64t-57.5 18q-66 0 -82 -82zM254 136q61 0 103 41q-5 27 -7 39q-2 20 -2 30q-138 -4 -138 -72q0 -38 44 -38z" />
    <glyph glyph-name="ccedilla" unicode="&#xe7;" horiz-adv-x="564" 
d="M305 -205q-100 0 -158 38l33 55q45 -30 109 -30q40 0 40 28q0 24 -28 24q-19 0 -38 -15l-45 22l25 80q-95 14 -156.5 77.5t-61.5 192.5q0 64 18.5 114.5t47 80.5t67 49.5t75 27t74.5 7.5q108 0 163 -45.5t82 -124.5l-166 -52q-12 46 -31.5 63t-49.5 17q-82 0 -82 -138
q0 -66 17 -103t63 -37q65 0 87 86l164 -55q-61 -155 -236 -164l-8 -35q23 15 69 15q30 0 51.5 -19t21.5 -52q0 -47 -42 -77t-105 -30z" />
    <glyph glyph-name="egrave" unicode="&#xe8;" 
d="M314 -11q-59 0 -108 13.5t-91 43.5t-66 86.5t-24 134.5q0 62 19 111.5t48.5 80t68 51t75 28.5t71.5 8q258 0 258 -305v-30h-343q7 -49 33.5 -68t73.5 -19q72 0 154 49l71 -120q-99 -64 -240 -64zM224 324h166q-6 46 -26.5 65t-57.5 19q-65 0 -82 -84zM264 592l-152 181
h190l93 -181h-131z" />
    <glyph glyph-name="eacute" unicode="&#xe9;" 
d="M314 -11q-59 0 -108 13.5t-91 43.5t-66 86.5t-24 134.5q0 62 19 111.5t48.5 80t68 51t75 28.5t71.5 8q258 0 258 -305v-30h-343q7 -49 33.5 -68t73.5 -19q72 0 154 49l71 -120q-99 -64 -240 -64zM224 324h166q-6 46 -26.5 65t-57.5 19q-65 0 -82 -84zM193 592l93 181h190
l-152 -181h-131z" />
    <glyph glyph-name="ecircumflex" unicode="&#xea;" 
d="M314 -11q-59 0 -108 13.5t-91 43.5t-66 86.5t-24 134.5q0 62 19 111.5t48.5 80t68 51t75 28.5t71.5 8q258 0 258 -305v-30h-343q7 -49 33.5 -68t73.5 -19q72 0 154 49l71 -120q-99 -64 -240 -64zM224 324h166q-6 46 -26.5 65t-57.5 19q-65 0 -82 -84zM100 597l129 176
h130l129 -176h-111l-84 64l-82 -64h-111z" />
    <glyph glyph-name="edieresis" unicode="&#xeb;" 
d="M314 -11q-59 0 -108 13.5t-91 43.5t-66 86.5t-24 134.5q0 62 19 111.5t48.5 80t68 51t75 28.5t71.5 8q258 0 258 -305v-30h-343q7 -49 33.5 -68t73.5 -19q72 0 154 49l71 -120q-99 -64 -240 -64zM224 324h166q-6 46 -26.5 65t-57.5 19q-65 0 -82 -84zM325 585v175h160
v-175h-160zM98 585v175h160v-175h-160z" />
    <glyph glyph-name="igrave" unicode="&#xec;" horiz-adv-x="316" 
d="M59 0v536h198v-536h-198zM98 592l-152 181h190l93 -181h-131z" />
    <glyph glyph-name="iacute" unicode="&#xed;" horiz-adv-x="316" 
d="M59 0v536h198v-536h-198zM83 592l93 181h190l-152 -181h-131z" />
    <glyph glyph-name="icircumflex" unicode="&#xee;" horiz-adv-x="316" 
d="M59 0v536h198v-536h-198zM-36 597l129 176h130l129 -176h-111l-84 64l-82 -64h-111z" />
    <glyph glyph-name="idieresis" unicode="&#xef;" horiz-adv-x="316" 
d="M59 0v536h198v-536h-198zM189 585v175h160v-175h-160zM-38 585v175h160v-175h-160z" />
    <glyph glyph-name="eth" unicode="&#xf0;" horiz-adv-x="620" 
d="M310 -11q-127 0 -205 64.5t-78 178.5q0 117 67 180.5t165 63.5q33 0 73 -12t67 -39q-11 54 -41 108l-62 -35l-56 97l51 29q-28 30 -52 51l93 103q56 -39 92 -77l73 42l56 -97l-58 -34q98 -151 98 -349q0 -129 -78 -201.5t-205 -72.5zM310 126q86 0 86 109q0 55 -23 82.5
t-63 27.5q-86 0 -86 -111q0 -108 86 -108z" />
    <glyph glyph-name="ntilde" unicode="&#xf1;" horiz-adv-x="633" 
d="M55 0v536h198v-83q22 36 67 64.5t111 28.5q69 0 111.5 -37t42.5 -118v-391h-198v326q0 58 -45 58q-42 0 -89 -38v-346h-198zM394 580q-34 0 -60.5 14t-45.5 28t-37 14q-41 0 -41 -54h-104q0 179 132 179q34 0 60.5 -14t45.5 -28t37 -14q41 0 41 54h104q0 -179 -132 -179z
" />
    <glyph glyph-name="ograve" unicode="&#xf2;" horiz-adv-x="622" 
d="M311 -11q-41 0 -79.5 7.5t-77 27t-66.5 50t-45.5 80.5t-17.5 113q0 80 25.5 137t69.5 86.5t91 42.5t100 13t100 -13t90.5 -42.5t69.5 -86.5t26 -137q0 -63 -17.5 -113t-45.5 -80.5t-66.5 -50t-77 -27t-79.5 -7.5zM311 126q88 0 88 140q0 138 -88 138t-88 -138
q0 -140 88 -140zM281 592l-152 181h190l93 -181h-131z" />
    <glyph glyph-name="oacute" unicode="&#xf3;" horiz-adv-x="622" 
d="M311 -11q-41 0 -79.5 7.5t-77 27t-66.5 50t-45.5 80.5t-17.5 113q0 80 25.5 137t69.5 86.5t91 42.5t100 13t100 -13t90.5 -42.5t69.5 -86.5t26 -137q0 -63 -17.5 -113t-45.5 -80.5t-66.5 -50t-77 -27t-79.5 -7.5zM311 126q88 0 88 140q0 138 -88 138t-88 -138
q0 -140 88 -140zM210 592l93 181h190l-152 -181h-131z" />
    <glyph glyph-name="ocircumflex" unicode="&#xf4;" horiz-adv-x="622" 
d="M311 -11q-41 0 -79.5 7.5t-77 27t-66.5 50t-45.5 80.5t-17.5 113q0 80 25.5 137t69.5 86.5t91 42.5t100 13t100 -13t90.5 -42.5t69.5 -86.5t26 -137q0 -63 -17.5 -113t-45.5 -80.5t-66.5 -50t-77 -27t-79.5 -7.5zM311 126q88 0 88 140q0 138 -88 138t-88 -138
q0 -140 88 -140zM117 597l129 176h130l129 -176h-111l-84 64l-82 -64h-111z" />
    <glyph glyph-name="otilde" unicode="&#xf5;" horiz-adv-x="622" 
d="M311 -11q-41 0 -79.5 7.5t-77 27t-66.5 50t-45.5 80.5t-17.5 113q0 80 25.5 137t69.5 86.5t91 42.5t100 13t100 -13t90.5 -42.5t69.5 -86.5t26 -137q0 -63 -17.5 -113t-45.5 -80.5t-66.5 -50t-77 -27t-79.5 -7.5zM311 126q88 0 88 140q0 138 -88 138t-88 -138
q0 -140 88 -140zM389 580q-34 0 -60.5 14t-45.5 28t-37 14q-41 0 -41 -54h-104q0 179 132 179q34 0 60.5 -14t45.5 -28t37 -14q41 0 41 54h104q0 -179 -132 -179z" />
    <glyph glyph-name="odieresis" unicode="&#xf6;" horiz-adv-x="622" 
d="M311 -11q-41 0 -79.5 7.5t-77 27t-66.5 50t-45.5 80.5t-17.5 113q0 80 25.5 137t69.5 86.5t91 42.5t100 13t100 -13t90.5 -42.5t69.5 -86.5t26 -137q0 -63 -17.5 -113t-45.5 -80.5t-66.5 -50t-77 -27t-79.5 -7.5zM311 126q88 0 88 140q0 138 -88 138t-88 -138
q0 -140 88 -140zM342 585v175h160v-175h-160zM115 585v175h160v-175h-160z" />
    <glyph glyph-name="divide" unicode="&#xf7;" horiz-adv-x="650" 
d="M247 493v132h156v-132h-156zM68 282v154h514v-154h-514zM247 91v132h156v-132h-156z" />
    <glyph glyph-name="oslash" unicode="&#xf8;" horiz-adv-x="622" 
d="M553 435q44 -67 44 -168q0 -63 -17.5 -113t-45.5 -80.5t-66.5 -50t-77 -27t-79.5 -7.5q-91 0 -159 36l-69 -70l-73 73l63 65q-48 70 -48 174q0 80 25.5 137t69.5 86.5t91 42.5t100 13q99 0 167 -40l61 63l73 -73zM219 237l148 151q-22 19 -56 19q-93 0 -93 -141
q0 -20 1 -29zM403 288l-145 -148q22 -17 53 -17q93 0 93 143q0 15 -1 22z" />
    <glyph glyph-name="ugrave" unicode="&#xf9;" horiz-adv-x="633" 
d="M203 -11q-69 0 -111.5 37t-42.5 118v392h198v-332q0 -58 45 -58q42 0 89 38v352h198v-536h-198v82q-22 -36 -67 -64.5t-111 -28.5zM286 592l-152 181h190l93 -181h-131z" />
    <glyph glyph-name="uacute" unicode="&#xfa;" horiz-adv-x="633" 
d="M203 -11q-69 0 -111.5 37t-42.5 118v392h198v-332q0 -58 45 -58q42 0 89 38v352h198v-536h-198v82q-22 -36 -67 -64.5t-111 -28.5zM205 592l93 181h190l-152 -181h-131z" />
    <glyph glyph-name="ucircumflex" unicode="&#xfb;" horiz-adv-x="633" 
d="M203 -11q-69 0 -111.5 37t-42.5 118v392h198v-332q0 -58 45 -58q42 0 89 38v352h198v-536h-198v82q-22 -36 -67 -64.5t-111 -28.5zM119 597l129 176h130l129 -176h-111l-84 64l-82 -64h-111z" />
    <glyph glyph-name="udieresis" unicode="&#xfc;" horiz-adv-x="633" 
d="M203 -11q-69 0 -111.5 37t-42.5 118v392h198v-332q0 -58 45 -58q42 0 89 38v352h198v-536h-198v82q-22 -36 -67 -64.5t-111 -28.5zM344 585v175h160v-175h-160zM117 585v175h160v-175h-160z" />
    <glyph glyph-name="yacute" unicode="&#xfd;" horiz-adv-x="574" 
d="M164 -205q-102 0 -178 22l41 152q60 -16 113 -16q39 0 51 31l5 13l-204 539h203l99 -306h2l99 306h191l-224 -590q-28 -74 -74 -112.5t-124 -38.5zM186 592l93 181h190l-152 -181h-131z" />
    <glyph glyph-name="thorn" unicode="&#xfe;" horiz-adv-x="636" 
d="M54 -200v940h198v-287q62 93 159 93q93 0 146.5 -71.5t53.5 -206.5t-54 -205.5t-148 -70.5q-100 0 -157 66v-258h-198zM334 139q79 0 79 128q0 56 -17.5 86.5t-63.5 30.5q-43 0 -80 -39v-172q38 -34 82 -34z" />
    <glyph glyph-name="ydieresis" unicode="&#xff;" horiz-adv-x="574" 
d="M164 -205q-102 0 -178 22l41 152q60 -16 113 -16q39 0 51 31l5 13l-204 539h203l99 -306h2l99 306h191l-224 -590q-28 -74 -74 -112.5t-124 -38.5zM326 585v175h160v-175h-160zM99 585v175h160v-175h-160z" />
    <glyph glyph-name="dotlessi" unicode="&#x131;" horiz-adv-x="316" 
d="M59 0v536h198v-536h-198z" />
    <glyph glyph-name="Lslash" unicode="&#x141;" horiz-adv-x="595" 
d="M69 0v311l-79 -21v146l79 21v283h200v-230l135 36v-146l-135 -36v-203h311v-161h-511z" />
    <glyph glyph-name="lslash" unicode="&#x142;" horiz-adv-x="355" 
d="M80 0v270l-57 -16v142l57 16v328h198v-274l54 15v-142l-54 -15v-324h-198z" />
    <glyph glyph-name="OE" unicode="&#x152;" horiz-adv-x="1135" 
d="M396 -14q-70 0 -133 22.5t-115.5 67t-84 120.5t-31.5 174t31.5 174t84 120.5t115.5 67t133 22.5q103 0 184 -45v31h507v-166h-328v-120h234v-156h-234v-137h345v-161h-524v31q-81 -45 -184 -45zM396 146q77 0 120 60.5t43 163.5t-43 161t-120 58q-78 0 -121 -58t-43 -161
t43 -163.5t121 -60.5z" />
    <glyph glyph-name="oe" unicode="&#x153;" horiz-adv-x="956" 
d="M311 -11q-41 0 -79.5 7.5t-77 27t-66.5 50t-45.5 80.5t-17.5 113q0 80 25.5 137t69.5 86.5t91 42.5t100 13q117 0 182 -82q70 82 181 82q38 0 70 -6t68.5 -25t61.5 -51t41.5 -89t16.5 -134v-30h-343q7 -49 33 -67t74 -18q76 0 154 47l71 -120q-99 -64 -240 -64
q-123 0 -191 75q-62 -75 -179 -75zM591 324h166q-6 46 -26.5 64t-57.5 18q-66 0 -82 -82zM311 131q88 0 88 135q0 133 -88 133t-88 -133q0 -135 88 -135z" />
    <glyph glyph-name="Scaron" unicode="&#x160;" horiz-adv-x="709" 
d="M360 -14q-223 0 -333 177l148 92q33 -53 84.5 -82.5t109.5 -29.5q107 0 107 64q0 32 -33 49.5t-99 33.5q-120 31 -162 51q-120 57 -120 179q0 111 76.5 172.5t205.5 61.5q191 0 310 -145l-134 -110q-32 39 -81.5 66t-95.5 27q-86 0 -86 -54q0 -33 32.5 -51t98.5 -34
l54.5 -13.5t53.5 -16t55 -22t45.5 -28.5t40.5 -38.5t24 -50t10 -63.5q0 -99 -76 -167t-235 -68zM287 787l-129 176h111l82 -64l84 64h111l-129 -176h-130z" />
    <glyph glyph-name="scaron" unicode="&#x161;" horiz-adv-x="545" 
d="M280 -11q-160 0 -266 77l73 111q37 -29 91 -47t101 -18q64 0 64 35q0 20 -18.5 29.5t-64.5 15.5q-36 5 -58.5 9.5t-57 17t-54.5 29.5t-35 47t-15 70q0 87 62 134t157 47q83 0 140.5 -18t109.5 -56l-73 -109q-92 54 -158 54q-55 0 -55 -34q0 -18 19.5 -26.5t62.5 -14.5
q30 -4 49 -7.5t48 -11t48 -18.5t38 -27.5t28.5 -41.5t9.5 -56q0 -51 -20.5 -89.5t-56.5 -60t-78 -31.5t-91 -10zM205 597l-129 176h111l82 -64l84 64h111l-129 -176h-130z" />
    <glyph glyph-name="Ydieresis" unicode="&#x178;" horiz-adv-x="721" 
d="M260 0v309l-258 431h206l153 -262l154 262h204l-259 -431v-309h-200zM394 775v175h160v-175h-160zM167 775v175h160v-175h-160z" />
    <glyph glyph-name="Zcaron" unicode="&#x17d;" horiz-adv-x="675" 
d="M25 0v137l362 437h-338v166h592v-142l-352 -437h352v-161h-616zM280 787l-129 176h111l82 -64l84 64h111l-129 -176h-130z" />
    <glyph glyph-name="zcaron" unicode="&#x17e;" horiz-adv-x="540" 
d="M24 0v99l232 295h-216v142h461v-103l-233 -295h255v-138h-499zM208 597l-129 176h111l82 -64l84 64h111l-129 -176h-130z" />
    <glyph glyph-name="florin" unicode="&#x192;" horiz-adv-x="456" 
d="M-88 -195l16 130q18 -6 51 -6q37 0 56 18.5t24 60.5l45 364h-92l16 134h92l6 50q4 39 13.5 68t32.5 59t67.5 46t109.5 16q90 0 120 -9l-17 -135q-18 6 -51 6q-23 0 -36 -2.5t-26.5 -16t-15.5 -40.5l-5 -42h116l-16 -134h-116l-50 -408q-3 -26 -8.5 -46.5t-20.5 -44.5
t-37.5 -40t-62 -26.5t-91.5 -10.5q-90 0 -120 9z" />
    <glyph glyph-name="circumflex" unicode="&#x2c6;" horiz-adv-x="570" 
d="M91 597l129 176h130l129 -176h-111l-84 64l-82 -64h-111z" />
    <glyph glyph-name="caron" unicode="&#x2c7;" horiz-adv-x="570" 
d="M218 597l-129 176h111l82 -64l84 64h111l-129 -176h-130z" />
    <glyph glyph-name="breve" unicode="&#x2d8;" horiz-adv-x="500" 
d="M250 579q-88 0 -136 55t-52 139h103q10 -75 85 -75t85 75h103q-4 -84 -52 -139t-136 -55z" />
    <glyph glyph-name="dotaccent" unicode="&#x2d9;" horiz-adv-x="500" 
d="M151 608v152h198v-152h-198z" />
    <glyph glyph-name="ring" unicode="&#x2da;" horiz-adv-x="540" 
d="M270 583q-50 0 -83.5 33.5t-33.5 83.5t33.5 83t83.5 33t83.5 -33t33.5 -83t-33.5 -83.5t-83.5 -33.5zM270 655q19 0 31 12.5t12 32.5q0 19 -12 31.5t-31 12.5t-31 -12.5t-12 -31.5q0 -20 12 -32.5t31 -12.5z" />
    <glyph glyph-name="ogonek" unicode="&#x2db;" horiz-adv-x="500" 
d="M275 -187q-58 0 -88.5 20t-30.5 57q0 58 82 110h100q-55 -38 -55 -78q0 -35 43 -35q36 0 78 25l38 -58q-67 -41 -167 -41z" />
    <glyph glyph-name="tilde" unicode="&#x2dc;" horiz-adv-x="530" 
d="M343 580q-34 0 -60.5 14t-45.5 28t-37 14q-41 0 -41 -54h-104q0 179 132 179q34 0 60.5 -14t45.5 -28t37 -14q41 0 41 54h104q0 -179 -132 -179z" />
    <glyph glyph-name="hungarumlaut" unicode="&#x2dd;" horiz-adv-x="535" 
d="M239 592l118 181h190l-177 -181h-131zM35 592l108 181h190l-167 -181h-131z" />
    <glyph glyph-name="pi" unicode="&#x3c0;" horiz-adv-x="868" 
d="M432 -14q-164 0 -273 109t-109 273t111 275t275 111t273 -109t109 -273t-111 -275t-275 -111zM436 68q128 0 210 84.5t82 215.5q0 132 -83.5 218t-212.5 86q-128 0 -210 -84.5t-82 -215.5q0 -132 83.5 -218t212.5 -86zM288 167v415h169q167 0 167 -140q0 -73 -46.5 -108
t-128.5 -35h-42v-132h-119zM407 391h46q54 0 54 45q0 46 -55 46h-45v-91z" />
    <glyph glyph-name="endash" unicode="&#x2013;" horiz-adv-x="690" 
d="M50 228v165h590v-165h-590z" />
    <glyph glyph-name="emdash" unicode="&#x2014;" horiz-adv-x="950" 
d="M50 227v166h850v-166h-850z" />
    <glyph glyph-name="quoteleft" unicode="&#x2018;" horiz-adv-x="287" 
d="M45 433v164l89 143h92l-50 -127h66v-180h-197z" />
    <glyph glyph-name="quoteright" unicode="&#x2019;" horiz-adv-x="287" 
d="M61 433l50 127h-66v180h197v-164l-89 -143h-92z" />
    <glyph glyph-name="quotesinglbase" unicode="&#x201a;" horiz-adv-x="287" 
d="M61 -127l50 127h-66v180h197v-164l-89 -143h-92z" />
    <glyph glyph-name="quotedblleft" unicode="&#x201c;" horiz-adv-x="548" 
d="M306 433v164l89 143h92l-50 -127h66v-180h-197zM45 433v164l89 143h92l-50 -127h66v-180h-197z" />
    <glyph glyph-name="quotedblright" unicode="&#x201d;" horiz-adv-x="548" 
d="M322 433l50 127h-66v180h197v-164l-89 -143h-92zM61 433l50 127h-66v180h197v-164l-89 -143h-92z" />
    <glyph glyph-name="quotedblbase" unicode="&#x201e;" horiz-adv-x="548" 
d="M322 -127l50 127h-66v180h197v-164l-89 -143h-92zM61 -127l50 127h-66v180h197v-164l-89 -143h-92z" />
    <glyph glyph-name="dagger" unicode="&#x2020;" horiz-adv-x="633" 
d="M214 -200l30 546l-221 -19v179l221 -20l-30 254h205l-30 -254l221 20v-179l-221 19l30 -546h-205z" />
    <glyph glyph-name="daggerdbl" unicode="&#x2021;" horiz-adv-x="633" 
d="M214 -200l30 191l-196 -20v169l196 -19l-26 148l26 149l-196 -19v169l196 -20l-30 192h205l-30 -192l196 20v-169l-196 19l26 -149l-26 -148l196 19v-169l-196 20l30 -191h-205z" />
    <glyph glyph-name="bullet" unicode="&#x2022;" horiz-adv-x="463" 
d="M231 207q-61 0 -102 40.5t-41 102.5t40.5 103t102.5 41t103 -41t41 -103t-41 -102.5t-103 -40.5z" />
    <glyph glyph-name="ellipsis" unicode="&#x2026;" horiz-adv-x="861" 
d="M614 0v180h207v-180h-207zM327 0v180h207v-180h-207zM40 0v180h207v-180h-207z" />
    <glyph glyph-name="perthousand" unicode="&#x2030;" horiz-adv-x="1627" 
d="M250 252q-99 0 -156.5 68t-57.5 183q0 114 57.5 182t156.5 68q98 0 155.5 -68t57.5 -182q0 -115 -57.5 -183t-155.5 -68zM277 0l442 740h168l-442 -740h-168zM1378 -10q-99 0 -156.5 68t-57.5 183q0 114 57.5 182t156.5 68q98 0 155.5 -68t57.5 -182q0 -115 -57.5 -183
t-155.5 -68zM916 -10q-99 0 -156.5 68t-57.5 183q0 114 57.5 182t156.5 68q98 0 155.5 -68t57.5 -182q0 -115 -57.5 -183t-155.5 -68zM250 373q30 0 41.5 32t11.5 98q0 65 -12 96t-41 31q-30 0 -42.5 -31t-12.5 -96q0 -130 55 -130zM1378 111q30 0 41.5 32t11.5 98
q0 65 -12 96t-41 31q-30 0 -42.5 -31t-12.5 -96q0 -130 55 -130zM916 111q30 0 41.5 32t11.5 98q0 65 -12 96t-41 31q-30 0 -42.5 -31t-12.5 -96q0 -130 55 -130z" />
    <glyph glyph-name="guilsinglleft" unicode="&#x2039;" horiz-adv-x="393" 
d="M189 0l-174 268l174 268h186l-165 -268l165 -268h-186z" />
    <glyph glyph-name="guilsinglright" unicode="&#x203a;" horiz-adv-x="393" 
d="M18 0l165 268l-165 268h186l174 -268l-174 -268h-186z" />
    <glyph glyph-name="fraction" unicode="&#x2044;" horiz-adv-x="576" 
d="M-17 0l442 740h168l-442 -740h-168z" />
    <glyph glyph-name="Euro" unicode="&#x20ac;" horiz-adv-x="745" 
d="M118 388h-97v100h107q25 132 106 199t197 67q117 0 182.5 -50t98.5 -146l-167 -63q-19 55 -42.5 80t-67.5 25q-88 0 -114 -112h132v-100h-142v-18v-37h142v-101h-130q24 -96 114 -96q37 0 63.5 27.5t45.5 89.5l171 -54q-69 -213 -281 -213q-115 0 -195 61t-109 185h-111
v101h98q-1 12 -1 37v18z" />
    <glyph glyph-name="trademark" unicode="&#x2122;" horiz-adv-x="945" 
d="M431 317v423h181l57 -251l58 251h178v-423h-127v253l-61 -253h-109l-61 250v-250h-116zM137 317v316h-110v107h351v-107h-109v-316h-132z" />
    <glyph glyph-name="Omega" unicode="&#x2126;" horiz-adv-x="760" 
d="M122 112l-11 -1v139l25 -2l5 48l-131 -30v205l131 -30l-5 50l-25 -2v139l11 -1l-1 10h139l-2 -24l49 -5l-30 132h205l-30 -132l49 5l-2 24h139l-1 -10l11 1v-139l-25 2l-5 -50l132 30v-205l-132 30l5 -48l25 2v-139l-11 1l1 -12h-139l3 26l-50 5l30 -131h-205l30 131
l-50 -5l3 -26h-139zM512 502l-60 6v-67h66zM307 441v67l-60 -6l-6 -61h66zM452 296v-65l60 6l6 59h-66zM307 296h-66l6 -59l60 -6v65z" />
    <glyph glyph-name="partialdiff" unicode="&#x2202;" horiz-adv-x="760" 
d="M122 112l-11 -1v139l25 -2l5 48l-131 -30v205l131 -30l-5 50l-25 -2v139l11 -1l-1 10h139l-2 -24l49 -5l-30 132h205l-30 -132l49 5l-2 24h139l-1 -10l11 1v-139l-25 2l-5 -50l132 30v-205l-132 30l5 -48l25 2v-139l-11 1l1 -12h-139l3 26l-50 5l30 -131h-205l30 131
l-50 -5l3 -26h-139zM512 502l-60 6v-67h66zM307 441v67l-60 -6l-6 -61h66zM452 296v-65l60 6l6 59h-66zM307 296h-66l6 -59l60 -6v65z" />
    <glyph glyph-name="Delta" unicode="&#x2206;" horiz-adv-x="694" 
d="M437 577v163h198v-163h-198zM105 0v394h-87v142h87v20q0 189 174 189q81 0 111 -9v-133q-12 4 -42 4q-45 0 -45 -59v-12h91v-142h-91v-394h-198zM436 -204q-91 0 -121 9v130q18 -6 52 -6q37 0 53.5 18.5t16.5 60.5v528h198v-572q0 -27 -3 -47t-15 -44t-32.5 -40
t-58.5 -26.5t-90 -10.5z" />
    <glyph glyph-name="product" unicode="&#x220f;" horiz-adv-x="521" 
d="M259 294q-98 0 -163.5 65.5t-65.5 163.5t67 164.5t165 66.5t163.5 -65.5t65.5 -163.5t-67 -164.5t-165 -66.5zM262 343q77 0 126 50.5t49 129.5t-50.5 130.5t-127.5 51.5t-126 -50.5t-49 -129.5t50 -130.5t128 -51.5zM166 405v249h102q100 0 100 -87q0 -51 -41 -74
l44 -88h-74l-38 79h-21v-79h-72zM238 535h25q35 0 35 28t-35 28h-25v-56z" />
    <glyph glyph-name="summation" unicode="&#x2211;" horiz-adv-x="760" 
d="M122 112l-11 -1v139l25 -2l5 48l-131 -30v205l131 -30l-5 50l-25 -2v139l11 -1l-1 10h139l-2 -24l49 -5l-30 132h205l-30 -132l49 5l-2 24h139l-1 -10l11 1v-139l-25 2l-5 -50l132 30v-205l-132 30l5 -48l25 2v-139l-11 1l1 -12h-139l3 26l-50 5l30 -131h-205l30 131
l-50 -5l3 -26h-139zM512 502l-60 6v-67h66zM307 441v67l-60 -6l-6 -61h66zM452 296v-65l60 6l6 59h-66zM307 296h-66l6 -59l60 -6v65z" />
    <glyph glyph-name="minus" unicode="&#x2212;" horiz-adv-x="650" 
d="M68 282v154h514v-154h-514z" />
    <glyph glyph-name="radical" unicode="&#x221a;" horiz-adv-x="552" 
d="M176 0l-189 536h203l94 -319h2l157 523h184l-251 -740h-200z" />
    <glyph glyph-name="infinity" unicode="&#x221e;" horiz-adv-x="1026" 
d="M769 577v163h198v-163h-198zM105 0v394h-87v142h87v20q0 189 174 189q81 0 111 -9v-133q-12 4 -42 4q-45 0 -45 -59v-12h134v20q0 189 174 189q81 0 111 -9v-133q-12 4 -42 4q-45 0 -45 -59v-12h91v-142h-91v-394h-198v394h-134v-394h-198zM769 0v536h198v-536h-198z" />
    <glyph glyph-name="integral" unicode="&#x222b;" horiz-adv-x="760" 
d="M122 112l-11 -1v139l25 -2l5 48l-131 -30v205l131 -30l-5 50l-25 -2v139l11 -1l-1 10h139l-2 -24l49 -5l-30 132h205l-30 -132l49 5l-2 24h139l-1 -10l11 1v-139l-25 2l-5 -50l132 30v-205l-132 30l5 -48l25 2v-139l-11 1l1 -12h-139l3 26l-50 5l30 -131h-205l30 131
l-50 -5l3 -26h-139zM512 502l-60 6v-67h66zM307 441v67l-60 -6l-6 -61h66zM452 296v-65l60 6l6 59h-66zM307 296h-66l6 -59l60 -6v65z" />
    <glyph glyph-name="approxequal" unicode="&#x2248;" horiz-adv-x="760" 
d="M122 112l-11 -1v139l25 -2l5 48l-131 -30v205l131 -30l-5 50l-25 -2v139l11 -1l-1 10h139l-2 -24l49 -5l-30 132h205l-30 -132l49 5l-2 24h139l-1 -10l11 1v-139l-25 2l-5 -50l132 30v-205l-132 30l5 -48l25 2v-139l-11 1l1 -12h-139l3 26l-50 5l30 -131h-205l30 131
l-50 -5l3 -26h-139zM512 502l-60 6v-67h66zM307 441v67l-60 -6l-6 -61h66zM452 296v-65l60 6l6 59h-66zM307 296h-66l6 -59l60 -6v65z" />
    <glyph glyph-name="notequal" unicode="&#x2260;" horiz-adv-x="777" 
d="M105 0v394h-87v142h87v20q0 189 174 189q81 0 111 -9v-133q-12 4 -42 4q-45 0 -45 -59v-12h134v20q0 31 3 54t15 50.5t32.5 44.5t58.5 28.5t90 11.5q91 0 121 -9v-135q-18 6 -52 6q-17 0 -26.5 -1.5t-21 -6.5t-17 -18t-5.5 -33v-12h116v-142h-116v-394h-198v394h-134
v-394h-198z" />
    <glyph glyph-name="lessequal" unicode="&#x2264;" horiz-adv-x="760" 
d="M122 112l-11 -1v139l25 -2l5 48l-131 -30v205l131 -30l-5 50l-25 -2v139l11 -1l-1 10h139l-2 -24l49 -5l-30 132h205l-30 -132l49 5l-2 24h139l-1 -10l11 1v-139l-25 2l-5 -50l132 30v-205l-132 30l5 -48l25 2v-139l-11 1l1 -12h-139l3 26l-50 5l30 -131h-205l30 131
l-50 -5l3 -26h-139zM512 502l-60 6v-67h66zM307 441v67l-60 -6l-6 -61h66zM452 296v-65l60 6l6 59h-66zM307 296h-66l6 -59l60 -6v65z" />
    <glyph glyph-name="greaterequal" unicode="&#x2265;" horiz-adv-x="760" 
d="M122 112l-11 -1v139l25 -2l5 48l-131 -30v205l131 -30l-5 50l-25 -2v139l11 -1l-1 10h139l-2 -24l49 -5l-30 132h205l-30 -132l49 5l-2 24h139l-1 -10l11 1v-139l-25 2l-5 -50l132 30v-205l-132 30l5 -48l25 2v-139l-11 1l1 -12h-139l3 26l-50 5l30 -131h-205l30 131
l-50 -5l3 -26h-139zM512 502l-60 6v-67h66zM307 441v67l-60 -6l-6 -61h66zM452 296v-65l60 6l6 59h-66zM307 296h-66l6 -59l60 -6v65z" />
    <glyph glyph-name="lozenge" unicode="&#x25ca;" horiz-adv-x="760" 
d="M122 112l-11 -1v139l25 -2l5 48l-131 -30v205l131 -30l-5 50l-25 -2v139l11 -1l-1 10h139l-2 -24l49 -5l-30 132h205l-30 -132l49 5l-2 24h139l-1 -10l11 1v-139l-25 2l-5 -50l132 30v-205l-132 30l5 -48l25 2v-139l-11 1l1 -12h-139l3 26l-50 5l30 -131h-205l30 131
l-50 -5l3 -26h-139zM512 502l-60 6v-67h66zM307 441v67l-60 -6l-6 -61h66zM452 296v-65l60 6l6 59h-66zM307 296h-66l6 -59l60 -6v65z" />
    <glyph glyph-name="apple" unicode="&#xf8ff;" horiz-adv-x="760" 
d="M122 112l-11 -1v139l25 -2l5 48l-131 -30v205l131 -30l-5 50l-25 -2v139l11 -1l-1 10h139l-2 -24l49 -5l-30 132h205l-30 -132l49 5l-2 24h139l-1 -10l11 1v-139l-25 2l-5 -50l132 30v-205l-132 30l5 -48l25 2v-139l-11 1l1 -12h-139l3 26l-50 5l30 -131h-205l30 131
l-50 -5l3 -26h-139zM512 502l-60 6v-67h66zM307 441v67l-60 -6l-6 -61h66zM452 296v-65l60 6l6 59h-66zM307 296h-66l6 -59l60 -6v65z" />
    <glyph glyph-name="fi" unicode="&#xfb01;" horiz-adv-x="699" 
d="M437 577v163h198v-163h-198zM105 0v394h-87v142h87v20q0 189 174 189q81 0 111 -9v-133q-12 4 -42 4q-45 0 -45 -59v-12h91v-142h-91v-394h-198zM437 0v536h198v-536h-198z" />
    <glyph glyph-name="fl" unicode="&#xfb02;" horiz-adv-x="694" 
d="M105 0v394h-87v142h87v20q0 189 174 189q81 0 111 -9v-133q-12 4 -42 4q-45 0 -45 -59v-12h91v-142h-91v-394h-198zM437 0v740h198v-740h-198z" />
    <glyph glyph-name="NUL" horiz-adv-x="0" 
 />
  </font>
</defs>
</svg>
