<?xml version="1.0" standalone="no"?>
<!DOCTYPE svg PUBLIC "-//W3C//DTD SVG 1.1//EN" "http://www.w3.org/Graphics/SVG/1.1/DTD/svg11.dtd" >
<svg>
<metadata>
Created by FontForge 20090622 at Thu Oct  8 03:13:39 2015
 By deploy user
[c] Copyright 2000-2003, The Font Bureau, Inc. Designed by Cyrus Highsmith, Tobias Frere-Jones, and Font Bureau. All rights reserved.
</metadata>
<defs>
<font id="BentonSans-Thin" horiz-adv-x="500" >
  <font-face 
    font-family="BentonSans"
    font-weight="100"
    font-stretch="normal"
    units-per-em="1000"
    panose-1="2 0 6 3 3 0 0 2 0 4"
    ascent="800"
    descent="-200"
    x-height="525"
    cap-height="740"
    bbox="-73 -204 1259 943"
    underline-thickness="20"
    underline-position="-113"
    unicode-range="U+0020-U+FB02"
  />
<missing-glyph 
 />
    <glyph glyph-name=".notdef" 
 />
    <glyph glyph-name=".null" horiz-adv-x="0" 
 />
    <glyph glyph-name="nonmarkingreturn" horiz-adv-x="333" 
 />
    <glyph glyph-name="space" unicode=" " horiz-adv-x="201" 
 />
    <glyph glyph-name="exclam" unicode="!" horiz-adv-x="295" 
d="M139 153l-5 587h27l-5 -587h-17zM126 0v52h43v-52h-43z" />
    <glyph glyph-name="quotedbl" unicode="&#x22;" horiz-adv-x="377" 
d="M264 493l-7 196v51h24v-51l-7 -196h-10zM103 493l-7 196v51h24v-51l-7 -196h-10z" />
    <glyph glyph-name="numbersign" unicode="#" horiz-adv-x="689" 
d="M512 509h127v-23h-132l-48 -229h135v-23h-140l-49 -234h-23l49 234h-232l-49 -234h-23l49 234h-125v23h130l48 229h-133v23h138l48 231h23l-48 -231h232l48 231h23zM484 486h-232l-48 -229h232z" />
    <glyph glyph-name="dollar" unicode="$" horiz-adv-x="633" 
d="M305 -93v79q-166 6 -227 148l23 10q29 -65 75 -98.5t129 -37.5v376q-118 39 -160 80t-42 122q0 68 55 117t147 52v64h25v-64q131 -7 195 -116l-21 -13q-60 99 -174 106v-331q133 -43 184.5 -88.5t51.5 -138.5q0 -85 -66 -136.5t-170 -52.5v-78h-25zM305 410v322
q-82 -3 -129.5 -45t-47.5 -101q0 -71 37 -106.5t140 -69.5zM330 8q96 1 153.5 46t57.5 120q0 78 -45 120t-166 81v-367z" />
    <glyph glyph-name="percent" unicode="%" horiz-adv-x="935" 
d="M228 311q-71 0 -112.5 58t-41.5 159t42.5 159.5t113.5 58.5t114 -58.5t43 -159.5t-43.5 -159t-115.5 -58zM698 740l-441 -740h-25l441 740h25zM702 -6q-71 0 -112.5 58t-41.5 159t42.5 159.5t113.5 58.5t114 -58.5t43 -159.5t-43.5 -159t-115.5 -58zM230 723
q-61 0 -96 -53t-35 -142t34 -141.5t95 -52.5t97.5 52.5t36.5 141.5t-35.5 142t-96.5 53zM704 406q-61 0 -96 -53t-35 -142t34 -141.5t95 -52.5t97.5 52.5t36.5 141.5t-35.5 142t-96.5 53z" />
    <glyph glyph-name="ampersand" unicode="&#x26;" horiz-adv-x="711" 
d="M274 -11q-97 0 -159.5 48.5t-62.5 140.5q0 77 49 131t130 98q-58 100 -58 185q0 73 48 118t113 45q64 0 102.5 -36t38.5 -103q0 -85 -89 -146q-27 -18 -123 -69q14 -24 34 -53q96 -143 211 -232q71 89 88 248h25q-18 -167 -94 -262q79 -59 153 -77v-26q-83 21 -169 85
q-90 -95 -237 -95zM252 419q102 53 131 76q67 52 67 121q0 56 -32 86t-84 30q-55 0 -95.5 -39t-40.5 -101q0 -78 54 -173zM274 12q138 0 219 86q-120 92 -216 236q-28 43 -35 55q-74 -40 -119.5 -90t-45.5 -121q0 -81 55.5 -123.5t141.5 -42.5z" />
    <glyph glyph-name="quotesingle" unicode="'" horiz-adv-x="216" 
d="M103 493l-7 196v51h24v-51l-7 -196h-10z" />
    <glyph glyph-name="parenleft" unicode="(" horiz-adv-x="391" 
d="M337 728q-111 -88 -173.5 -209t-62.5 -249q0 -129 63 -251t173 -207l-12 -16q-120 94 -184.5 216.5t-64.5 257.5q0 134 64 256t185 218z" />
    <glyph glyph-name="parenright" unicode=")" horiz-adv-x="391" 
d="M54 -188q111 88 173.5 209t62.5 249q0 129 -63 251t-173 207l12 16q120 -94 184.5 -216.5t64.5 -257.5q0 -134 -64 -256t-185 -218z" />
    <glyph glyph-name="asterisk" unicode="*" horiz-adv-x="506" 
d="M242 555l-186 -4v20l186 -4l-96 160l17 10l90 -163l90 163l17 -10l-96 -160l186 4v-20l-186 4l96 -160l-17 -10l-90 163l-90 -163l-17 10z" />
    <glyph glyph-name="plus" unicode="+" horiz-adv-x="624" 
d="M300 76v237h-235v23h235v236h25v-236h234v-23h-234v-237h-25z" />
    <glyph glyph-name="comma" unicode="," horiz-adv-x="255" 
d="M109 -83l16 83h-19v52h43v-46l-24 -89h-16z" />
    <glyph glyph-name="hyphen" unicode="-" horiz-adv-x="350" 
d="M74 304v23h202v-23h-202z" />
    <glyph glyph-name="period" unicode="." horiz-adv-x="255" 
d="M106 0v52h43v-52h-43z" />
    <glyph glyph-name="slash" unicode="/" horiz-adv-x="519" 
d="M39 0l416 740h25l-416 -740h-25z" />
    <glyph glyph-name="zero" unicode="0" horiz-adv-x="641" 
d="M321 755q123 0 190.5 -106t67.5 -279t-67.5 -279t-190.5 -106t-191 106.5t-68 278.5t68 278.5t191 106.5zM321 9q114 0 173.5 99.5t59.5 261.5t-59.5 262t-173.5 100t-174 -100t-60 -262t60 -261.5t174 -99.5z" />
    <glyph glyph-name="one" unicode="1" horiz-adv-x="421" 
d="M217 24v685q-56 -41 -145 -41v25q86 0 148 47h22v-716h131v-24h-305v24h149z" />
    <glyph glyph-name="two" unicode="2" horiz-adv-x="576" 
d="M84 24h424v-24h-450l1 26q3 68 22.5 110.5t72 88t165.5 114.5q89 55 127.5 104t38.5 111q0 82 -50.5 130t-135.5 48q-76 0 -127.5 -39t-79.5 -99l-22 10q29 64 89 107.5t140 43.5q98 0 154.5 -53.5t56.5 -147.5q0 -70 -42.5 -123.5t-138.5 -111.5q-108 -66 -158.5 -110
t-67.5 -82.5t-19 -102.5z" />
    <glyph glyph-name="three" unicode="3" horiz-adv-x="581" 
d="M320 397q92 -10 141.5 -62.5t49.5 -140.5q0 -92 -64.5 -150.5t-166.5 -58.5q-169 0 -244 141l20 13q68 -131 224 -131q90 0 148 52t58 134q0 89 -58 140t-176 51h-47v23h45q97 0 159 38.5t62 119.5q0 78 -47.5 122t-138.5 44q-122 0 -189 -106l-20 13q29 48 83.5 82
t125.5 34q104 0 157.5 -50.5t53.5 -138.5q0 -69 -48.5 -115t-127.5 -54z" />
    <glyph glyph-name="four" unicode="4" horiz-adv-x="584" 
d="M402 203h-357v23l357 514h25v-514h131v-23h-131v-203h-25v203zM402 226v476l-330 -476h330z" />
    <glyph glyph-name="five" unicode="5" horiz-adv-x="571" 
d="M476 716h-336l-27 -328q21 34 71.5 62.5t113.5 28.5q97 0 160 -62.5t63 -173.5t-64 -184.5t-182 -73.5q-48 0 -90 15t-69.5 38t-45 45t-25.5 42l23 11q18 -43 72.5 -85t134.5 -42q106 0 163.5 67t57.5 167t-56 156.5t-142 56.5q-62 0 -112 -30t-76 -75l-23 7l31 382h358
v-24z" />
    <glyph glyph-name="six" unicode="6" horiz-adv-x="596" 
d="M316 -15q-48 0 -91.5 20t-80.5 61.5t-59 116.5t-22 174q0 180 71.5 289t200.5 109q98 0 181 -69l-16 -19q-76 65 -165 65q-118 0 -183 -101.5t-65 -273.5v-18q38 44 101 81t129 37q118 0 176.5 -66t58.5 -162q0 -102 -64.5 -173t-171.5 -71zM316 8q96 0 153.5 64.5
t57.5 156.5q0 86 -52 145.5t-158 59.5q-71 0 -132.5 -39.5t-96.5 -86.5q10 -151 76.5 -225.5t151.5 -74.5z" />
    <glyph glyph-name="seven" unicode="7" horiz-adv-x="546" 
d="M64 740h438v-23l-335 -717h-26l336 717h-413v23z" />
    <glyph glyph-name="eight" unicode="8" horiz-adv-x="596" 
d="M302 -15q-112 0 -184 52.5t-72 141.5q0 42 18 76.5t53.5 60t69.5 42.5t84 36q-43 16 -70.5 30t-56 35t-42.5 49.5t-14 65.5q0 80 61.5 130.5t152.5 50.5t153 -50.5t62 -130.5q0 -36 -14.5 -64t-43.5 -49t-57 -35t-72 -31q49 -19 83 -36t68.5 -43t52.5 -60.5t18 -76.5
q0 -89 -69.5 -141.5t-180.5 -52.5zM303 406q39 15 59 23.5t49.5 24.5t43.5 31t25.5 38t11.5 51q0 70 -55 114t-135 44t-134.5 -44t-54.5 -114q0 -27 11.5 -50t25.5 -38t44.5 -31.5t49.5 -24.5zM302 9q100 0 162.5 45.5t62.5 124.5q0 32 -14 60t-33 47.5t-53 39t-60 30.5
t-68 27q-41 -16 -68 -27.5t-60.5 -30.5t-53 -38.5t-33 -47.5t-13.5 -60q0 -78 65.5 -124t165.5 -46z" />
    <glyph glyph-name="nine" unicode="9" horiz-adv-x="596" 
d="M509 401q-38 -44 -101 -81t-129 -37q-118 0 -176.5 66t-58.5 162q0 102 64.5 173t171.5 71q48 0 91.5 -20t80.5 -61.5t59 -116.5t22 -174q0 -180 -71.5 -289t-200.5 -109q-98 0 -181 69l16 19q76 -65 165 -65q118 0 183 101.5t65 273.5v18zM508 432q-10 151 -76.5 225.5
t-151.5 74.5q-96 0 -153.5 -64.5t-57.5 -156.5q0 -86 52 -145.5t158 -59.5q71 0 132.5 39.5t96.5 86.5z" />
    <glyph glyph-name="colon" unicode=":" horiz-adv-x="255" 
d="M106 473v52h43v-52h-43zM106 0v52h43v-52h-43z" />
    <glyph glyph-name="semicolon" unicode=";" horiz-adv-x="255" 
d="M106 473v52h43v-52h-43zM109 -83l16 83h-19v52h43v-46l-24 -89h-16z" />
    <glyph glyph-name="less" unicode="&#x3c;" horiz-adv-x="667" 
d="M578 92l-509 222v23l509 219v-24l-484 -207l484 -209v-24z" />
    <glyph glyph-name="equal" unicode="=" horiz-adv-x="669" 
d="M97 427v23h475v-23h-475zM97 202v23h475v-23h-475z" />
    <glyph glyph-name="greater" unicode="&#x3e;" horiz-adv-x="667" 
d="M89 556l509 -222v-23l-509 -219v24l484 207l-484 209v24z" />
    <glyph glyph-name="question" unicode="?" horiz-adv-x="521" 
d="M47 631q28 49 84.5 86.5t127.5 37.5q93 0 148 -48.5t55 -131.5q0 -35 -8.5 -61t-29.5 -48t-40 -36.5t-56 -37.5q-65 -41 -80 -81t-15 -149h-25q0 117 17 160t90 88q66 41 94 73.5t28 91.5q0 72 -49 114.5t-129 42.5q-64 0 -115.5 -34.5t-75.5 -78.5zM199 0v52h43v-52h-43
z" />
    <glyph glyph-name="at" unicode="@" horiz-adv-x="868" 
d="M430 -12q-90 0 -162.5 31t-118 83.5t-69.5 120.5t-24 145q0 172 108 278.5t272 106.5q163 0 271.5 -104t108.5 -269q0 -109 -45.5 -163.5t-111.5 -54.5q-45 0 -75 19.5t-39 52.5q-80 -75 -173 -75q-64 0 -104.5 42t-40.5 124q0 112 54.5 188.5t142.5 76.5q91 0 156 -59
l7 51h25l-44 -301q-7 -45 17.5 -70.5t73.5 -25.5q57 0 94.5 49.5t37.5 145.5q0 154 -101 252t-254 98t-254 -101t-101 -261q0 -154 93.5 -255t255.5 -101q118 0 219 49l10 -20q-112 -53 -229 -53zM372 182q87 0 170 77q0 15 1 23l33 223q-58 62 -152 62q-79 0 -125.5 -72
t-46.5 -170q0 -70 33.5 -106.5t86.5 -36.5z" />
    <glyph glyph-name="A" unicode="A" horiz-adv-x="647" 
d="M41 0l269 744h27l269 -744h-27l-96 266h-320l-96 -266h-26zM171 289h304l-152 421z" />
    <glyph glyph-name="B" unicode="B" horiz-adv-x="666" 
d="M105 0v740h203q134 0 199.5 -42.5t65.5 -144.5q0 -77 -48 -119t-109 -53q32 -4 60.5 -14t60.5 -30t51.5 -58t19.5 -89q0 -89 -64 -139.5t-184 -50.5h-255zM130 391h205q96 0 154.5 41.5t58.5 120.5q0 90 -58 127t-180 37h-180v-326zM130 22h232q108 0 164.5 44.5
t56.5 123.5q0 87 -64.5 132.5t-183.5 45.5h-205v-346z" />
    <glyph glyph-name="C" unicode="C" horiz-adv-x="692" 
d="M368 -15q-133 0 -217 110.5t-84 280.5q0 164 84 271.5t211 107.5q55 0 99 -18t74 -51t49 -70t34 -84l-24 -8q-29 94 -82.5 151t-149.5 57q-117 0 -193.5 -101t-76.5 -255q0 -158 77 -263t199 -105q176 0 239 216l24 -6q-8 -29 -19 -56t-32.5 -61t-49 -58t-70 -41
t-92.5 -17z" />
    <glyph glyph-name="D" unicode="D" horiz-adv-x="686" 
d="M104 0v740h135q380 0 380 -370t-380 -370h-135zM129 23h112q353 0 353 347t-353 347h-112v-694z" />
    <glyph glyph-name="E" unicode="E" horiz-adv-x="580" 
d="M104 0v740h418v-23h-393v-312h298v-23h-298v-359h400v-23h-425z" />
    <glyph glyph-name="F" unicode="F" horiz-adv-x="559" 
d="M104 0v740h409v-23h-384v-313h289v-23h-289v-381h-25z" />
    <glyph glyph-name="G" unicode="G" horiz-adv-x="702" 
d="M362 -15q-123 0 -210.5 103t-87.5 290q0 155 80 266t214 111q185 0 258 -226l-24 -8q-34 102 -87.5 156.5t-146.5 54.5q-83 0 -145.5 -51t-93 -130.5t-30.5 -172.5q0 -175 79.5 -272.5t193.5 -97.5q105 0 169.5 82t60.5 214h-197v23h222v-327h-25v163
q-19 -71 -81.5 -124.5t-148.5 -53.5z" />
    <glyph glyph-name="H" unicode="H" horiz-adv-x="722" 
d="M104 0v740h25v-335h464v335h25v-740h-25v382h-464v-382h-25z" />
    <glyph glyph-name="I" unicode="I" horiz-adv-x="245" 
d="M110 0v740h25v-740h-25z" />
    <glyph glyph-name="J" unicode="J" horiz-adv-x="486" 
d="M388 740v-556q0 -99 -47 -149t-132 -50q-115 0 -172 111l22 11q52 -99 150 -99q154 0 154 176v556h25z" />
    <glyph glyph-name="K" unicode="K" horiz-adv-x="640" 
d="M129 257v-257h-25v740h25v-450l415 450h30l-258 -280l298 -460h-29l-285 442z" />
    <glyph glyph-name="L" unicode="L" horiz-adv-x="559" 
d="M104 0v740h25v-717h385v-23h-410z" />
    <glyph glyph-name="M" unicode="M" horiz-adv-x="858" 
d="M416 0l-288 677v-677h-24v740h23l302 -709l302 709h23v-740h-25v677l-288 -677h-25z" />
    <glyph glyph-name="N" unicode="N" horiz-adv-x="730" 
d="M104 0v740h27l471 -694v694h24v-740h-24l-474 700v-700h-24z" />
    <glyph glyph-name="O" unicode="O" horiz-adv-x="731" 
d="M365 -15q-130 0 -214 107.5t-84 277.5t84 277.5t214 107.5q129 0 214 -108t85 -277t-85 -277t-214 -108zM365 8q119 0 196.5 102t77.5 260t-77.5 260t-196.5 102q-120 0 -196.5 -101.5t-76.5 -260.5t76.5 -260.5t196.5 -101.5z" />
    <glyph glyph-name="P" unicode="P" horiz-adv-x="610" 
d="M104 0v740h219q120 0 184 -52.5t64 -138.5q0 -85 -64 -136.5t-184 -51.5h-194v-361h-25zM129 384h195q108 0 165 44.5t57 120.5t-57.5 122t-164.5 46h-195v-333z" />
    <glyph glyph-name="Q" unicode="Q" horiz-adv-x="731" 
d="M376 -14q1 -135 173 -135h46v-23h-46q-197 0 -198 158q-125 6 -204.5 112.5t-79.5 271.5q0 170 84 277.5t214 107.5q129 0 214 -108t85 -277q0 -165 -81 -272t-207 -112zM365 8q119 0 196.5 102t77.5 260t-77.5 260t-196.5 102q-120 0 -196.5 -101.5t-76.5 -260.5
t76.5 -260.5t196.5 -101.5z" />
    <glyph glyph-name="R" unicode="R" horiz-adv-x="655" 
d="M104 0v740h219q120 0 184 -52.5t64 -138.5q0 -77 -53.5 -126.5t-154.5 -58.5l210 -364h-29l-209 362h-206v-362h-25zM129 384h195q108 0 165 44.5t57 120.5t-57.5 122t-164.5 46h-195v-333z" />
    <glyph glyph-name="S" unicode="S" horiz-adv-x="633" 
d="M327 -15q-118 0 -178.5 52t-89.5 147l24 8q28 -90 83.5 -137t160.5 -47q98 0 156 45t58 121q0 79 -45.5 120.5t-170.5 82.5q-131 43 -176.5 83.5t-45.5 125.5q0 70 57.5 119.5t153.5 49.5q94 0 151.5 -47t84.5 -124l-24 -8q-57 156 -212 156q-86 0 -136 -42.5t-50 -103.5
q0 -73 43 -110t163 -76q127 -41 179.5 -86.5t52.5 -139.5q0 -87 -66.5 -138t-172.5 -51z" />
    <glyph glyph-name="T" unicode="T" horiz-adv-x="608" 
d="M292 0v717h-253v23h530v-23h-252v-717h-25z" />
    <glyph glyph-name="U" unicode="U" horiz-adv-x="710" 
d="M354 -15q-117 0 -186 72t-69 180v503h25v-503q0 -97 62.5 -163t167.5 -66q103 0 167.5 64.5t64.5 156.5v511h25v-511q0 -102 -71.5 -173t-185.5 -71z" />
    <glyph glyph-name="V" unicode="V" horiz-adv-x="653" 
d="M313 -4l-271 744h27l258 -710l258 710h26l-271 -744h-27z" />
    <glyph glyph-name="W" unicode="W" horiz-adv-x="908" 
d="M455 691l-176 -691h-27l-206 740h27l193 -695l176 695h26l193 -695l176 695h25l-188 -740h-27z" />
    <glyph glyph-name="X" unicode="X" horiz-adv-x="639" 
d="M332 399l270 -399h-28l-257 379l-256 -379h-27l270 398l-231 342h28l218 -322l217 322h27z" />
    <glyph glyph-name="Y" unicode="Y" horiz-adv-x="597" 
d="M286 0v337l-252 403h27l238 -380l239 380h26l-253 -403v-337h-25z" />
    <glyph glyph-name="Z" unicode="Z" horiz-adv-x="613" 
d="M556 0h-509v23l484 695h-458v22h486v-23l-482 -695h479v-22z" />
    <glyph glyph-name="bracketleft" unicode="[" horiz-adv-x="371" 
d="M100 -200v940h211v-23h-186v-894h186v-23h-211z" />
    <glyph glyph-name="backslash" unicode="\" horiz-adv-x="519" 
d="M480 0h-25l-416 740h25z" />
    <glyph glyph-name="bracketright" unicode="]" horiz-adv-x="371" 
d="M271 740v-940h-211v23h186v894h-186v23h211z" />
    <glyph glyph-name="asciicircum" unicode="^" 
d="M105 577l137 156h16l137 -156h-21l-125 124l-123 -124h-21z" />
    <glyph glyph-name="underscore" unicode="_" 
d="M0 -100v25h500v-25h-500z" />
    <glyph glyph-name="grave" unicode="`" 
d="M285 582h-16l-133 151h43z" />
    <glyph glyph-name="a" unicode="a" horiz-adv-x="528" 
d="M427 338v43q0 63 -31.5 98t-95.5 35q-120 0 -209 -89l-15 15q92 96 224 96q76 0 113 -40t37 -113v-269q0 -75 12 -114h-23q-11 30 -12 93q-40 -42 -100 -74t-125 -32q-69 0 -107.5 33t-38.5 95q0 90 92.5 142.5t278.5 80.5zM427 120v198q-188 -29 -268 -79.5t-80 -123.5
q0 -51 32.5 -78.5t90.5 -27.5q65 0 127 35t98 76z" />
    <glyph glyph-name="b" unicode="b" horiz-adv-x="576" 
d="M86 0v740h23v-302q33 39 82 68.5t107 29.5q99 0 158.5 -69.5t59.5 -203.5t-59.5 -204t-158.5 -70q-101 0 -189 100v-89h-23zM298 11q88 0 141.5 63.5t53.5 188.5q0 124 -55 187.5t-142 63.5q-102 0 -187 -103v-294q51 -56 93.5 -81t95.5 -25z" />
    <glyph glyph-name="c" unicode="c" horiz-adv-x="526" 
d="M470 137q-37 -76 -81.5 -112t-114.5 -36q-95 0 -155 79t-60 194q0 133 65 203.5t156 70.5q70 0 112.5 -35.5t72.5 -107.5l-20 -10q-28 66 -65 98.5t-100 32.5q-82 0 -140 -65t-58 -187q0 -105 53 -178t139 -73q63 0 102.5 33t73.5 103z" />
    <glyph glyph-name="d" unicode="d" horiz-adv-x="576" 
d="M279 -11q-99 0 -158.5 69.5t-59.5 203.5t59.5 204t158.5 70q101 0 189 -100v304h23v-626q0 -75 12 -114h-23q-12 34 -12 87q-33 -39 -82 -68.5t-107 -29.5zM281 11q102 0 187 103v294q-51 56 -93.5 81t-95.5 25q-88 0 -141.5 -63.5t-53.5 -188.5q0 -124 55 -187.5
t142 -63.5z" />
    <glyph glyph-name="e" unicode="e" horiz-adv-x="534" 
d="M81 268v-7q0 -101 51 -175.5t140 -74.5q100 0 186 121l18 -13q-92 -130 -204 -130q-100 0 -157 81t-57 191q0 133 65 204.5t152 71.5t144 -69.5t57 -196.5v-3h-395zM82 289h370q-4 107 -53.5 166.5t-123.5 59.5t-130 -59t-63 -167z" />
    <glyph glyph-name="f" unicode="f" horiz-adv-x="305" 
d="M128 503h-92v22h92v103q0 60 36.5 86.5t116.5 27.5v-22q-70 0 -100 -20.5t-30 -69.5v-105h126v-22h-126v-503h-23v503z" />
    <glyph glyph-name="g" unicode="g" horiz-adv-x="554" 
d="M384 496q74 45 129 54v-24q-59 -9 -111 -45q53 -51 53 -129q0 -77 -54 -129t-141 -52q-53 0 -93 20q-61 -31 -61 -69q0 -31 32 -41.5t135 -16.5q112 -7 167.5 -33.5t55.5 -91.5q0 -59 -62.5 -99t-173.5 -40q-233 0 -233 125q0 45 34.5 79t77.5 54q-56 15 -56 64
q0 45 65 79q-81 52 -81 151q0 77 53.5 130.5t139.5 53.5q73 0 124 -40zM260 514q-76 0 -123 -47t-47 -115t47 -113.5t123 -45.5t124 46t48 113q0 68 -48 115t-124 47zM167 52q-48 -18 -82.5 -51.5t-34.5 -75.5q0 -103 210 -103q101 0 157 33.5t56 83.5q0 29 -16 49.5
t-46.5 31t-62.5 15.5t-77 8q-75 4 -104 9z" />
    <glyph glyph-name="h" unicode="h" horiz-adv-x="563" 
d="M86 0v740h23v-307q115 103 216 103q161 0 161 -166v-370h-23v370q0 144 -138 144q-103 0 -216 -107v-407h-23z" />
    <glyph glyph-name="i" unicode="i" horiz-adv-x="205" 
d="M87 662v42h32v-42h-32zM91 0v525h23v-525h-23z" />
    <glyph glyph-name="j" unicode="j" horiz-adv-x="205" 
d="M87 662v42h32v-42h-32zM17 -176q16 -4 27 -4q47 0 47 55v650h23v-645q0 -81 -68 -81q-11 0 -29 3v22z" />
    <glyph glyph-name="k" unicode="k" horiz-adv-x="512" 
d="M109 161v-161h-23v740h23v-550l310 335h26l-174 -188l199 -337h-25l-189 320z" />
    <glyph glyph-name="l" unicode="l" horiz-adv-x="205" 
d="M91 0v740h23v-740h-23z" />
    <glyph glyph-name="m" unicode="m" horiz-adv-x="908" 
d="M464 427q124 109 214 109q153 0 153 -166v-370h-23v370q0 144 -130 144q-97 0 -210 -109q2 -22 2 -35v-370h-23v370q0 144 -130 144q-95 0 -208 -107v-407h-23v525h23v-92q115 103 208 103q122 0 147 -109z" />
    <glyph glyph-name="n" unicode="n" horiz-adv-x="563" 
d="M86 0v525h23v-92q115 103 216 103q161 0 161 -166v-370h-23v370q0 144 -138 144q-103 0 -216 -107v-407h-23z" />
    <glyph glyph-name="o" unicode="o" horiz-adv-x="567" 
d="M283 -11q-93 0 -158.5 77.5t-65.5 195.5q0 121 65 197.5t159 76.5q92 0 158.5 -77t66.5 -197q0 -117 -66.5 -195t-158.5 -78zM283 11q84 0 143 71.5t59 179.5q0 110 -59 181t-143 71q-85 0 -143 -71t-58 -181q0 -108 58.5 -179.5t142.5 -71.5z" />
    <glyph glyph-name="p" unicode="p" horiz-adv-x="576" 
d="M86 -200v725h23v-87q33 39 82 68.5t107 29.5q99 0 158.5 -69.5t59.5 -203.5t-59.5 -204t-158.5 -70q-101 0 -189 100v-289h-23zM298 11q88 0 141.5 63.5t53.5 188.5q0 124 -55 187.5t-142 63.5q-102 0 -187 -103v-294q51 -56 93.5 -81t95.5 -25z" />
    <glyph glyph-name="q" unicode="q" horiz-adv-x="576" 
d="M490 525v-725h-23v287q-33 -39 -82 -68.5t-107 -29.5q-99 0 -158.5 69.5t-59.5 203.5t59.5 204t158.5 70q101 0 189 -100v89h23zM278 514q-88 0 -141.5 -63.5t-53.5 -188.5q0 -124 55 -187.5t142 -63.5q102 0 187 103v294q-51 56 -93.5 81t-95.5 25z" />
    <glyph glyph-name="r" unicode="r" horiz-adv-x="385" 
d="M109 405q94 142 224 129l19 -2l-4 -20l-19 2q-128 13 -220 -143v-371h-23v525h23v-120z" />
    <glyph glyph-name="s" unicode="s" 
d="M74 99q70 -88 173 -88q77 0 122.5 33t45.5 90t-40.5 85t-132.5 51q-91 23 -130.5 52.5t-39.5 90.5q0 53 43 88t120 35q114 0 183 -79l-18 -14q-62 71 -165 71q-70 0 -105 -29t-35 -72q0 -52 35.5 -76.5t118.5 -45.5q48 -12 77.5 -22.5t57.5 -28.5t41 -44t13 -62
q0 -66 -52.5 -105.5t-138.5 -39.5q-119 0 -191 96z" />
    <glyph glyph-name="t" unicode="t" horiz-adv-x="350" 
d="M128 503h-92v22h92v191h23v-191h147v-22h-147v-392q0 -49 19.5 -72t70.5 -23q26 0 59 6v-22q-34 -6 -63 -6q-61 0 -85 29.5t-24 90.5v389z" />
    <glyph glyph-name="u" unicode="u" horiz-adv-x="563" 
d="M477 525v-525h-23v92q-115 -103 -216 -103q-161 0 -161 166v370h23v-370q0 -144 138 -144q103 0 216 107v407h23z" />
    <glyph glyph-name="v" unicode="v" horiz-adv-x="501" 
d="M238 -4l-201 529h24l190 -500l190 500h23l-201 -529h-25z" />
    <glyph glyph-name="w" unicode="w" horiz-adv-x="744" 
d="M373 489l-143 -493h-22l-171 529h23l159 -493l142 493h23l159 -493l142 493h22l-153 -529h-22z" />
    <glyph glyph-name="x" unicode="x" horiz-adv-x="499" 
d="M237 268l-180 257h25l167 -238l167 238h24l-180 -254l190 -271h-25l-177 252l-177 -252h-24z" />
    <glyph glyph-name="y" unicode="y" horiz-adv-x="499" 
d="M251 27l188 498h23l-234 -619q-21 -57 -56.5 -83t-93.5 -26q-37 0 -85 12l6 22q45 -12 79 -12q51 0 81.5 23t48.5 72l31 81l-202 530h24z" />
    <glyph glyph-name="z" unicode="z" horiz-adv-x="499" 
d="M443 0h-384v20l345 484h-327v21h354v-20l-345 -484h357v-21z" />
    <glyph glyph-name="braceleft" unicode="{" horiz-adv-x="361" 
d="M126 270q36 -10 49 -32.5t13 -71.5v-260q0 -83 83 -83h41v-23h-41q-57 0 -82.5 27t-25.5 79v260q0 53 -19.5 72.5t-89.5 19.5v24q71 0 90 19t19 73v260q0 52 25.5 79t82.5 27h41v-23h-41q-83 0 -83 -83v-260q0 -48 -13.5 -72t-48.5 -32z" />
    <glyph glyph-name="bar" unicode="|" horiz-adv-x="331" 
d="M153 -200v940h25v-940h-25z" />
    <glyph glyph-name="braceright" unicode="}" horiz-adv-x="361" 
d="M235 270q-36 10 -49 32.5t-13 71.5v260q0 83 -83 83h-41v23h41q57 0 82.5 -27t25.5 -79v-260q0 -53 19.5 -72.5t89.5 -19.5v-24q-71 0 -90 -19t-19 -73v-260q0 -52 -25.5 -79t-82.5 -27h-41v23h41q83 0 83 83v260q0 48 13.5 72t48.5 32z" />
    <glyph glyph-name="asciitilde" unicode="~" 
d="M399 512q0 -44 -17 -64t-53 -20q-27 0 -85 33q-52 29 -73 29q-25 0 -36 -14.5t-11 -47.5h-23q0 44 17 64t53 20q29 0 84 -32q52 -30 74 -30q25 0 36 14.5t11 47.5h23z" />
    <glyph glyph-name="nbspace" unicode="&#xa0;" horiz-adv-x="100" 
 />
    <glyph glyph-name="exclamdown" unicode="&#xa1;" horiz-adv-x="295" 
d="M126 688v52h43v-52h-43zM134 0l5 587h17l5 -587h-27z" />
    <glyph glyph-name="cent" unicode="&#xa2;" horiz-adv-x="526" 
d="M196 5l-34 -133h-21l37 143q-55 32 -87 99t-32 148q0 133 65 203.5t156 70.5q12 0 34 -2l27 104h21l-28 -108q46 -12 76.5 -46t54.5 -91l-20 -10q-22 52 -49 83t-68 42l-126 -481q35 -16 72 -16q63 0 102.5 33t73.5 103l20 -10q-37 -76 -81.5 -112t-114.5 -36
q-40 0 -78 16zM184 37l124 475q-16 2 -28 2q-82 0 -140 -65t-58 -187q0 -73 27 -133.5t75 -91.5z" />
    <glyph glyph-name="sterling" unicode="&#xa3;" horiz-adv-x="586" 
d="M211 382h-124v23h111q-58 102 -58 186q0 79 51 121.5t124 42.5q87 0 131.5 -55.5t47.5 -128.5h-24q-3 63 -41.5 112t-113.5 49q-63 0 -106.5 -36t-43.5 -105q0 -78 61 -186h176v-23h-163q55 -99 55 -199q0 -48 -13 -86q24 -28 39.5 -43.5t44 -30t60.5 -14.5
q101 0 104 168h24q-3 -191 -128 -191q-48 0 -82.5 22.5t-70.5 64.5q-42 -88 -124 -88q-47 0 -76 26.5t-29 69.5q0 50 28 77t74 27q59 0 117 -65q7 27 7 63q0 97 -58 199zM254 93l-3 3q-19 21 -31.5 33t-32.5 22.5t-42 10.5q-35 0 -56 -21.5t-21 -59.5q0 -33 22 -53t58 -20
q73 0 106 85z" />
    <glyph glyph-name="currency" unicode="&#xa4;" horiz-adv-x="722" 
d="M130 436h-110v23h113q20 133 95 214.5t179 81.5q52 0 93.5 -18t69 -51.5t45.5 -69.5t33 -84l-24 -8q-14 45 -29.5 78t-40.5 65t-62 48.5t-85 16.5q-95 0 -162.5 -75.5t-86.5 -197.5h255v-23h-258q-3 -28 -3 -60q0 -38 4 -67h257v-23h-254q20 -124 88 -201t166 -77
q52 0 91.5 19t65 54t40 67.5t27.5 75.5l24 -6q-10 -38 -25.5 -72t-43.5 -74t-74 -63.5t-105 -23.5q-108 0 -183.5 83t-95.5 218h-114v23h111q-4 29 -4 67q0 32 3 60z" />
    <glyph glyph-name="yen" unicode="&#xa5;" horiz-adv-x="597" 
d="M286 312v25l-252 403h27l238 -380l239 380h26l-253 -403v-25h205v-23h-205v-127h205v-23h-205v-139h-25v139h-203v23h203v127h-203v23h203z" />
    <glyph glyph-name="brokenbar" unicode="&#xa6;" horiz-adv-x="331" 
d="M153 368v372h25v-372h-25zM153 -200v372h25v-372h-25z" />
    <glyph glyph-name="section" unicode="&#xa7;" horiz-adv-x="512" 
d="M198 457q-58 36 -84 71.5t-26 91.5t46 95t123 39q81 0 126.5 -40.5t59.5 -106.5l-24 -6q-28 130 -162 130q-67 0 -105.5 -32t-38.5 -79q0 -62 36.5 -96.5t133.5 -87.5q45 -25 68.5 -39.5t50 -36.5t37.5 -45t11 -52q0 -104 -136 -166q58 -36 84 -71.5t26 -91.5t-46 -95
t-123 -39q-81 0 -126.5 40.5t-59.5 106.5l24 6q28 -130 162 -130q67 0 105.5 32t38.5 79q0 62 -36.5 96.5t-133.5 87.5q-45 25 -68.5 39.5t-50 36.5t-37.5 45t-11 52q0 104 136 166zM290 111q135 55 135 152q0 57 -73 105q-19 12 -81 47l-49 28q-59 -24 -97 -63t-38 -89
q0 -57 73 -105q19 -12 81 -47z" />
    <glyph glyph-name="dieresis" unicode="&#xa8;" 
d="M307 582v49h33v-49h-33zM160 582v49h33v-49h-33z" />
    <glyph glyph-name="copyright" unicode="&#xa9;" horiz-adv-x="862" 
d="M431 -14q-159 0 -270 112.5t-111 271.5t111 271.5t270 112.5t270 -112.5t111 -271.5t-111 -271.5t-270 -112.5zM431 8q150 0 254.5 106t104.5 256t-104.5 256t-254.5 106t-254.5 -106t-104.5 -256t104.5 -256t254.5 -106zM429 156q-79 0 -126 61.5t-47 160.5
q0 94 47.5 156t125.5 62q118 0 154 -134l-22 -6q-30 118 -132 118q-69 0 -110 -56t-41 -140q0 -89 41 -144.5t110 -55.5q108 0 138 123l22 -6q-17 -67 -58.5 -103t-101.5 -36z" />
    <glyph glyph-name="ordfeminine" unicode="&#xaa;" horiz-adv-x="400" 
d="M321 615v28q0 89 -83 89q-88 0 -149 -65l-16 16q71 71 165 71q106 0 106 -111v-182q0 -59 12 -82h-25q-9 24 -10 62q-73 -69 -152 -69q-51 0 -78.5 23t-27.5 65q0 58 54.5 95t203.5 60zM321 467v127q-134 -21 -184.5 -52.5t-50.5 -81.5q0 -66 83 -66q82 0 152 73z" />
    <glyph glyph-name="guillemotleft" unicode="&#xab;" horiz-adv-x="481" 
d="M383 0l-143 263l143 262h25l-144 -262l144 -263h-25zM205 0l-143 263l143 262h25l-144 -262l144 -263h-25z" />
    <glyph glyph-name="logicalnot" unicode="&#xac;" horiz-adv-x="780" 
d="M378 0l2 199l-141 -2l1 -43h-23v43h-43v23l43 -1l2 141l-199 -3v25l199 -2l-2 141l-43 -1v23h43v43h23l-1 -44l141 -1l-2 199h25l-3 -199l141 1l-1 44h23l-1 -44l44 1v-23h-44l-1 -140l199 2v-25l-199 3l1 -141l44 1v-23h-44l1 -43h-23v44l-140 1l3 -199h-25zM400 380
h142l-2 140l-140 2v-142zM238 380h142v142l-141 -1zM400 218l140 1l2 141h-142v-142zM380 218v142h-142l1 -141z" />
    <glyph glyph-name="registered" unicode="&#xae;" horiz-adv-x="862" 
d="M431 -14q-159 0 -270 112.5t-111 271.5t111 271.5t270 112.5t270 -112.5t111 -271.5t-111 -271.5t-270 -112.5zM431 8q150 0 254.5 106t104.5 256t-104.5 256t-254.5 106t-254.5 -106t-104.5 -256t104.5 -256t254.5 -106zM309 158v425h140q70 0 107.5 -29.5t37.5 -83.5
q0 -109 -130 -117l119 -188h-24l-118 187h-110v-194h-22zM331 373h114q127 0 127 97q0 45 -32 68.5t-91 23.5h-118v-189z" />
    <glyph glyph-name="macron" unicode="&#xaf;" 
d="M114 629v24h272v-24h-272z" />
    <glyph glyph-name="degree" unicode="&#xb0;" horiz-adv-x="400" 
d="M200 484q-57 0 -95.5 38.5t-38.5 96.5t38.5 96.5t95.5 38.5t95.5 -38.5t38.5 -96.5t-38.5 -96.5t-95.5 -38.5zM200 732q-48 0 -79 -32t-31 -81t31 -81t79 -32t79 32t31 81t-31 81t-79 32z" />
    <glyph glyph-name="plusminus" unicode="&#xb1;" horiz-adv-x="791" 
d="M400 525v103q0 60 36.5 86.5t116.5 27.5v-22q-70 0 -100 -20.5t-30 -69.5v-105h126v-22h-126v-503h-23v503h-249v-503h-23v503h-92v22h92v103q0 60 36.5 86.5t116.5 27.5v-22q-70 0 -100 -20.5t-30 -69.5v-105h249zM672 0v740h23v-740h-23z" />
    <glyph glyph-name="twosuperior" unicode="&#xb2;" horiz-adv-x="433" 
d="M74 319v17q0 46 34 88.5t129 94.5q49 27 71.5 53.5t22.5 60.5q0 41 -28 68t-77 27q-43 0 -73 -18t-55 -60l-18 12q51 88 146 88q59 0 93.5 -33.5t34.5 -83.5q0 -42 -25 -72t-83 -61q-83 -45 -115 -82t-34 -77h258v-22h-281z" />
    <glyph glyph-name="threesuperior" unicode="&#xb3;" horiz-adv-x="433" 
d="M250 546q110 -11 110 -114q0 -51 -38.5 -85.5t-105.5 -34.5q-99 0 -153 87l18 12q49 -77 135 -77q56 0 88.5 27.5t32.5 70.5q0 52 -35 77.5t-111 25.5h-28v22h32q133 0 133 89q0 36 -27 59t-82 23q-69 0 -114 -62l-18 12q51 72 132 72q67 0 99.5 -29.5t32.5 -74.5
q0 -82 -101 -100z" />
    <glyph glyph-name="acute" unicode="&#xb4;" 
d="M215 582l106 151h43l-133 -151h-16z" />
    <glyph glyph-name="mu" unicode="&#xb5;" horiz-adv-x="563" 
d="M77 -200v725h23v-370q0 -144 138 -144q103 0 216 107v407h23v-525h-23v92q-115 -103 -216 -103t-138 63v-252h-23z" />
    <glyph glyph-name="paragraph" unicode="&#xb6;" horiz-adv-x="591" 
d="M287 -200v596q-101 -2 -155.5 42t-54.5 130q0 77 52.5 124.5t146.5 47.5h213v-940h-25v917h-152v-917h-25z" />
    <glyph glyph-name="periodcentered" unicode="&#xb7;" horiz-adv-x="255" 
d="M106 288v52h43v-52h-43z" />
    <glyph glyph-name="cedilla" unicode="&#xb8;" 
d="M144 -139q47 -34 109 -34q39 0 64 16.5t25 48.5q0 16 -13.5 27t-34.5 11q-28 0 -67 -28l-16 12l25 86h22l-22 -73q24 24 58 24q31 0 51 -17t20 -42q0 -41 -31.5 -63.5t-80.5 -22.5q-69 0 -121 38z" />
    <glyph glyph-name="onesuperior" unicode="&#xb9;" horiz-adv-x="414" 
d="M115 318v22h90v377q-11 -9 -38.5 -15.5t-49.5 -6.5v22q69 0 89 23h22v-400h81v-22h-194z" />
    <glyph glyph-name="ordmasculine" unicode="&#xba;" horiz-adv-x="416" 
d="M208 754q67 0 114 -53t47 -139q0 -83 -47.5 -137t-113.5 -54t-113.5 54t-47.5 137q0 86 47 139t114 53zM208 393q59 0 98.5 47.5t39.5 121.5q0 77 -39.5 123.5t-98.5 46.5t-98.5 -46.5t-39.5 -123.5q0 -74 39.5 -121.5t98.5 -47.5z" />
    <glyph glyph-name="guillemotright" unicode="&#xbb;" horiz-adv-x="481" 
d="M276 525l143 -263l-143 -262h-25l144 262l-144 263h25zM98 525l143 -263l-143 -262h-25l144 262l-144 263h25z" />
    <glyph glyph-name="onequarter" unicode="&#xbc;" horiz-adv-x="849" 
d="M115 318v22h90v377q-11 -9 -38.5 -15.5t-49.5 -6.5v22q69 0 89 23h22v-400h81v-22h-194zM181 0l486 740h25l-486 -740h-25zM676 0v113h-218v14l223 295h18v-288h79v-21h-79v-113h-23zM487 134h189v250z" />
    <glyph glyph-name="onehalf" unicode="&#xbd;" horiz-adv-x="918" 
d="M115 318v22h90v377q-11 -9 -38.5 -15.5t-49.5 -6.5v22q69 0 89 23h22v-400h81v-22h-194zM181 0l486 740h25l-486 -740h-25zM550 22h258v-22h-281v17q0 46 34 88.5t129 94.5q49 27 71.5 53.5t22.5 60.5q0 41 -28 68t-77 27q-43 0 -73 -18t-55 -60l-18 12q51 88 146 88
q59 0 93.5 -33.5t34.5 -83.5q0 -42 -25 -72t-83 -61q-83 -45 -115 -82t-34 -77z" />
    <glyph glyph-name="threequarters" unicode="&#xbe;" horiz-adv-x="873" 
d="M250 546q110 -11 110 -114q0 -51 -38.5 -85.5t-105.5 -34.5q-99 0 -153 87l18 12q49 -77 135 -77q56 0 88.5 27.5t32.5 70.5q0 52 -35 77.5t-111 25.5h-28v22h32q133 0 133 89q0 36 -27 59t-82 23q-69 0 -114 -62l-18 12q51 72 132 72q67 0 99.5 -29.5t32.5 -74.5
q0 -82 -101 -100zM214 0l486 740h25l-486 -740h-25zM709 0v113h-218v14l223 295h18v-288h79v-21h-79v-113h-23zM520 134h189v250z" />
    <glyph glyph-name="questiondown" unicode="&#xbf;" horiz-adv-x="521" 
d="M322 740v-52h-43v52h43zM474 109q-28 -49 -84.5 -86.5t-127.5 -37.5q-93 0 -148 48.5t-55 131.5q0 35 8.5 61t29.5 48t40 36.5t56 37.5q65 41 80 81t15 149h25q0 -117 -17 -160t-90 -88q-66 -41 -94 -73.5t-28 -91.5q0 -72 49 -114.5t129 -42.5q64 0 115.5 34.5
t75.5 78.5z" />
    <glyph glyph-name="Agrave" unicode="&#xc0;" horiz-adv-x="647" 
d="M41 0l269 744h27l269 -744h-27l-96 266h-320l-96 -266h-26zM171 289h304l-152 421zM358 787h-16l-133 151h43z" />
    <glyph glyph-name="Aacute" unicode="&#xc1;" horiz-adv-x="647" 
d="M41 0l269 744h27l269 -744h-27l-96 266h-320l-96 -266h-26zM171 289h304l-152 421zM288 787l106 151h43l-133 -151h-16z" />
    <glyph glyph-name="Acircumflex" unicode="&#xc2;" horiz-adv-x="647" 
d="M41 0l269 744h27l269 -744h-27l-96 266h-320l-96 -266h-26zM171 289h304l-152 421zM178 772l137 156h16l137 -156h-21l-125 124l-123 -124h-21z" />
    <glyph glyph-name="Atilde" unicode="&#xc3;" horiz-adv-x="647" 
d="M41 0l269 744h27l269 -744h-27l-96 266h-320l-96 -266h-26zM171 289h304l-152 421zM472 871q0 -44 -17 -64t-53 -20q-27 0 -85 33q-52 29 -73 29q-25 0 -36 -14.5t-11 -47.5h-23q0 44 17 64t53 20q29 0 84 -32q52 -30 74 -30q25 0 36 14.5t11 47.5h23z" />
    <glyph glyph-name="Adieresis" unicode="&#xc4;" horiz-adv-x="647" 
d="M41 0l269 744h27l269 -744h-27l-96 266h-320l-96 -266h-26zM171 289h304l-152 421zM380 787v49h33v-49h-33zM233 787v49h33v-49h-33z" />
    <glyph glyph-name="Aring" unicode="&#xc5;" horiz-adv-x="647" 
d="M41 0l260 717q-30 8 -48 31t-18 54q0 37 25 61.5t63 24.5t63 -24.5t25 -61.5q0 -31 -18 -54t-47 -30l260 -718h-27l-96 266h-320l-96 -266h-26zM323 737q29 0 47 18.5t18 46.5t-18.5 46t-46.5 18t-46.5 -18t-18.5 -46t18 -46.5t47 -18.5zM171 289h304l-152 421z" />
    <glyph glyph-name="AE" unicode="&#xc6;" horiz-adv-x="972" 
d="M227 267l-158 -267h-26l439 740h432v-23h-393v-313h298v-23h-298v-358h400v-23h-425v267h-269zM496 290v430l-255 -430h255z" />
    <glyph glyph-name="Ccedilla" unicode="&#xc7;" horiz-adv-x="692" 
d="M328 -12q-117 17 -189 124.5t-72 263.5q0 164 84 271.5t211 107.5q55 0 99 -18t74 -51t49 -70t34 -84l-24 -8q-29 94 -82.5 151t-149.5 57q-117 0 -193.5 -101t-76.5 -255q0 -158 77 -263t199 -105q176 0 239 216l24 -6q-8 -29 -19 -56t-32.5 -61t-49 -58t-70 -41
t-92.5 -17q-12 0 -18 1l-18 -59q24 24 58 24q31 0 51 -17t20 -42q0 -41 -31.5 -63.5t-80.5 -22.5q-69 0 -121 38l12 17q47 -34 109 -34q39 0 64 16.5t25 48.5q0 16 -13.5 27t-34.5 11q-28 0 -67 -28l-16 12z" />
    <glyph glyph-name="Egrave" unicode="&#xc8;" horiz-adv-x="580" 
d="M104 0v740h418v-23h-393v-312h298v-23h-298v-359h400v-23h-425zM355 787h-16l-133 151h43z" />
    <glyph glyph-name="Eacute" unicode="&#xc9;" horiz-adv-x="580" 
d="M104 0v740h418v-23h-393v-312h298v-23h-298v-359h400v-23h-425zM255 787l106 151h43l-133 -151h-16z" />
    <glyph glyph-name="Ecircumflex" unicode="&#xca;" horiz-adv-x="580" 
d="M104 0v740h418v-23h-393v-312h298v-23h-298v-359h400v-23h-425zM175 782l137 156h16l137 -156h-21l-125 124l-123 -124h-21z" />
    <glyph glyph-name="Edieresis" unicode="&#xcb;" horiz-adv-x="580" 
d="M104 0v740h418v-23h-393v-312h298v-23h-298v-359h400v-23h-425zM377 787v49h33v-49h-33zM230 787v49h33v-49h-33z" />
    <glyph glyph-name="Igrave" unicode="&#xcc;" horiz-adv-x="245" 
d="M110 0v740h25v-740h-25zM132 787h-16l-133 151h43z" />
    <glyph glyph-name="Iacute" unicode="&#xcd;" horiz-adv-x="245" 
d="M110 0v740h25v-740h-25zM112 787l106 151h43l-133 -151h-16z" />
    <glyph glyph-name="Icircumflex" unicode="&#xce;" horiz-adv-x="245" 
d="M110 0v740h25v-740h-25zM-23 782l137 156h16l137 -156h-21l-125 124l-123 -124h-21z" />
    <glyph glyph-name="Idieresis" unicode="&#xcf;" horiz-adv-x="245" 
d="M110 0v740h25v-740h-25zM179 787v49h33v-49h-33zM32 787v49h33v-49h-33z" />
    <glyph glyph-name="Eth" unicode="&#xd0;" horiz-adv-x="686" 
d="M104 374h-80v23h80v343h135q380 0 380 -370t-380 -370h-135v374zM129 397h137v-23h-137v-351h112q353 0 353 347t-353 347h-112v-320z" />
    <glyph glyph-name="Ntilde" unicode="&#xd1;" horiz-adv-x="730" 
d="M104 0v740h27l471 -694v694h24v-740h-24l-474 700v-700h-24zM514 871q0 -44 -17 -64t-53 -20q-27 0 -85 33q-52 29 -73 29q-25 0 -36 -14.5t-11 -47.5h-23q0 44 17 64t53 20q29 0 84 -32q52 -30 74 -30q25 0 36 14.5t11 47.5h23z" />
    <glyph glyph-name="Ograve" unicode="&#xd2;" horiz-adv-x="731" 
d="M365 -15q-130 0 -214 107.5t-84 277.5t84 277.5t214 107.5q129 0 214 -108t85 -277t-85 -277t-214 -108zM365 8q119 0 196.5 102t77.5 260t-77.5 260t-196.5 102q-120 0 -196.5 -101.5t-76.5 -260.5t76.5 -260.5t196.5 -101.5zM400 787h-16l-133 151h43z" />
    <glyph glyph-name="Oacute" unicode="&#xd3;" horiz-adv-x="731" 
d="M365 -15q-130 0 -214 107.5t-84 277.5t84 277.5t214 107.5q129 0 214 -108t85 -277t-85 -277t-214 -108zM365 8q119 0 196.5 102t77.5 260t-77.5 260t-196.5 102q-120 0 -196.5 -101.5t-76.5 -260.5t76.5 -260.5t196.5 -101.5zM330 787l106 151h43l-133 -151h-16z" />
    <glyph glyph-name="Ocircumflex" unicode="&#xd4;" horiz-adv-x="731" 
d="M365 -15q-130 0 -214 107.5t-84 277.5t84 277.5t214 107.5q129 0 214 -108t85 -277t-85 -277t-214 -108zM365 8q119 0 196.5 102t77.5 260t-77.5 260t-196.5 102q-120 0 -196.5 -101.5t-76.5 -260.5t76.5 -260.5t196.5 -101.5zM220 782l137 156h16l137 -156h-21l-125 124
l-123 -124h-21z" />
    <glyph glyph-name="Otilde" unicode="&#xd5;" horiz-adv-x="731" 
d="M365 -15q-130 0 -214 107.5t-84 277.5t84 277.5t214 107.5q129 0 214 -108t85 -277t-85 -277t-214 -108zM365 8q119 0 196.5 102t77.5 260t-77.5 260t-196.5 102q-120 0 -196.5 -101.5t-76.5 -260.5t76.5 -260.5t196.5 -101.5zM514 871q0 -44 -17 -64t-53 -20
q-27 0 -85 33q-52 29 -73 29q-25 0 -36 -14.5t-11 -47.5h-23q0 44 17 64t53 20q29 0 84 -32q52 -30 74 -30q25 0 36 14.5t11 47.5h23z" />
    <glyph glyph-name="Odieresis" unicode="&#xd6;" horiz-adv-x="731" 
d="M365 -15q-130 0 -214 107.5t-84 277.5t84 277.5t214 107.5q129 0 214 -108t85 -277t-85 -277t-214 -108zM365 8q119 0 196.5 102t77.5 260t-77.5 260t-196.5 102q-120 0 -196.5 -101.5t-76.5 -260.5t76.5 -260.5t196.5 -101.5zM422 787v49h33v-49h-33zM275 787v49h33v-49
h-33z" />
    <glyph glyph-name="multiply" unicode="&#xd7;" horiz-adv-x="624" 
d="M143 141l-15 15l167 168l-167 168l16 16l168 -168l167 168l16 -16l-168 -167l168 -168l-16 -16l-168 167z" />
    <glyph glyph-name="Oslash" unicode="&#xd8;" horiz-adv-x="731" 
d="M581 645q83 -109 83 -275q0 -169 -85 -277t-214 -108q-116 0 -199 89l-65 -89l-18 12l69 94q-85 109 -85 279t84 277.5t214 107.5q118 0 202 -93l68 93l18 -12zM167 112l385 530q-76 90 -187 90q-120 0 -196.5 -101.5t-76.5 -260.5q0 -158 75 -258zM566 624l-385 -530
q75 -86 184 -86q119 0 196.5 102t77.5 260q0 152 -73 254z" />
    <glyph glyph-name="Ugrave" unicode="&#xd9;" horiz-adv-x="710" 
d="M354 -15q-117 0 -186 72t-69 180v503h25v-503q0 -97 62.5 -163t167.5 -66q103 0 167.5 64.5t64.5 156.5v511h25v-511q0 -102 -71.5 -173t-185.5 -71zM390 787h-16l-133 151h43z" />
    <glyph glyph-name="Uacute" unicode="&#xda;" horiz-adv-x="710" 
d="M354 -15q-117 0 -186 72t-69 180v503h25v-503q0 -97 62.5 -163t167.5 -66q103 0 167.5 64.5t64.5 156.5v511h25v-511q0 -102 -71.5 -173t-185.5 -71zM320 787l106 151h43l-133 -151h-16z" />
    <glyph glyph-name="Ucircumflex" unicode="&#xdb;" horiz-adv-x="710" 
d="M354 -15q-117 0 -186 72t-69 180v503h25v-503q0 -97 62.5 -163t167.5 -66q103 0 167.5 64.5t64.5 156.5v511h25v-511q0 -102 -71.5 -173t-185.5 -71zM210 782l137 156h16l137 -156h-21l-125 124l-123 -124h-21z" />
    <glyph glyph-name="Udieresis" unicode="&#xdc;" horiz-adv-x="710" 
d="M354 -15q-117 0 -186 72t-69 180v503h25v-503q0 -97 62.5 -163t167.5 -66q103 0 167.5 64.5t64.5 156.5v511h25v-511q0 -102 -71.5 -173t-185.5 -71zM412 787v49h33v-49h-33zM265 787v49h33v-49h-33z" />
    <glyph glyph-name="Yacute" unicode="&#xdd;" horiz-adv-x="597" 
d="M286 0v337l-252 403h27l238 -380l239 380h26l-253 -403v-337h-25zM263 787l106 151h43l-133 -151h-16z" />
    <glyph glyph-name="Thorn" unicode="&#xde;" horiz-adv-x="610" 
d="M104 0v740h25v-134h194q120 0 184 -52.5t64 -138.5q0 -85 -64 -136.5t-184 -51.5h-194v-227h-25zM129 250h195q108 0 165 44.5t57 120.5t-57.5 122t-164.5 46h-195v-333z" />
    <glyph glyph-name="germandbls" unicode="&#xdf;" horiz-adv-x="580" 
d="M329 420q91 -11 144.5 -69t53.5 -147q0 -102 -48 -157.5t-129 -55.5t-144 56l14 16q57 -50 130 -50q71 0 112.5 50t41.5 141q0 98 -65 150t-167 54v22q83 0 124.5 41t41.5 96q0 72 -46 111t-116 39q-78 0 -122.5 -50t-44.5 -143v-524h-23v524q0 104 51 159.5t139 55.5
q79 0 132 -45t53 -127q0 -51 -34 -93.5t-98 -53.5z" />
    <glyph glyph-name="agrave" unicode="&#xe0;" horiz-adv-x="528" 
d="M427 338v43q0 63 -31.5 98t-95.5 35q-120 0 -209 -89l-15 15q92 96 224 96q76 0 113 -40t37 -113v-269q0 -75 12 -114h-23q-11 30 -12 93q-40 -42 -100 -74t-125 -32q-69 0 -107.5 33t-38.5 95q0 90 92.5 142.5t278.5 80.5zM427 120v198q-188 -29 -268 -79.5t-80 -123.5
q0 -51 32.5 -78.5t90.5 -27.5q65 0 127 35t98 76zM299 582h-16l-133 151h43z" />
    <glyph glyph-name="aacute" unicode="&#xe1;" horiz-adv-x="528" 
d="M427 338v43q0 63 -31.5 98t-95.5 35q-120 0 -209 -89l-15 15q92 96 224 96q76 0 113 -40t37 -113v-269q0 -75 12 -114h-23q-11 30 -12 93q-40 -42 -100 -74t-125 -32q-69 0 -107.5 33t-38.5 95q0 90 92.5 142.5t278.5 80.5zM427 120v198q-188 -29 -268 -79.5t-80 -123.5
q0 -51 32.5 -78.5t90.5 -27.5q65 0 127 35t98 76zM229 582l106 151h43l-133 -151h-16z" />
    <glyph glyph-name="acircumflex" unicode="&#xe2;" horiz-adv-x="528" 
d="M427 338v43q0 63 -31.5 98t-95.5 35q-120 0 -209 -89l-15 15q92 96 224 96q76 0 113 -40t37 -113v-269q0 -75 12 -114h-23q-11 30 -12 93q-40 -42 -100 -74t-125 -32q-69 0 -107.5 33t-38.5 95q0 90 92.5 142.5t278.5 80.5zM427 120v198q-188 -29 -268 -79.5t-80 -123.5
q0 -51 32.5 -78.5t90.5 -27.5q65 0 127 35t98 76zM119 577l137 156h16l137 -156h-21l-125 124l-123 -124h-21z" />
    <glyph glyph-name="atilde" unicode="&#xe3;" horiz-adv-x="528" 
d="M427 338v43q0 63 -31.5 98t-95.5 35q-120 0 -209 -89l-15 15q92 96 224 96q76 0 113 -40t37 -113v-269q0 -75 12 -114h-23q-11 30 -12 93q-40 -42 -100 -74t-125 -32q-69 0 -107.5 33t-38.5 95q0 90 92.5 142.5t278.5 80.5zM427 120v198q-188 -29 -268 -79.5t-80 -123.5
q0 -51 32.5 -78.5t90.5 -27.5q65 0 127 35t98 76zM413 666q0 -44 -17 -64t-53 -20q-27 0 -85 33q-52 29 -73 29q-25 0 -36 -14.5t-11 -47.5h-23q0 44 17 64t53 20q29 0 84 -32q52 -30 74 -30q25 0 36 14.5t11 47.5h23z" />
    <glyph glyph-name="adieresis" unicode="&#xe4;" horiz-adv-x="528" 
d="M427 338v43q0 63 -31.5 98t-95.5 35q-120 0 -209 -89l-15 15q92 96 224 96q76 0 113 -40t37 -113v-269q0 -75 12 -114h-23q-11 30 -12 93q-40 -42 -100 -74t-125 -32q-69 0 -107.5 33t-38.5 95q0 90 92.5 142.5t278.5 80.5zM427 120v198q-188 -29 -268 -79.5t-80 -123.5
q0 -51 32.5 -78.5t90.5 -27.5q65 0 127 35t98 76zM321 582v49h33v-49h-33zM174 582v49h33v-49h-33z" />
    <glyph glyph-name="aring" unicode="&#xe5;" horiz-adv-x="528" 
d="M264 584q-38 0 -63 25t-25 62t25 61.5t63 24.5t63 -24.5t25 -61.5t-25 -62t-63 -25zM427 338v43q0 63 -31.5 98t-95.5 35q-120 0 -209 -89l-15 15q92 96 224 96q76 0 113 -40t37 -113v-269q0 -75 12 -114h-23q-11 30 -12 93q-40 -42 -100 -74t-125 -32q-69 0 -107.5 33
t-38.5 95q0 90 92.5 142.5t278.5 80.5zM427 120v198q-188 -29 -268 -79.5t-80 -123.5q0 -51 32.5 -78.5t90.5 -27.5q65 0 127 35t98 76zM264 735q-28 0 -46.5 -18t-18.5 -46q0 -29 18.5 -47t46.5 -18t46.5 18t18.5 47q0 28 -18.5 46t-46.5 18z" />
    <glyph glyph-name="ae" unicode="&#xe6;" horiz-adv-x="903" 
d="M427 338v43q0 63 -31.5 98t-95.5 35q-120 0 -209 -89l-15 15q92 96 224 96q144 0 149 -148q27 72 80.5 110.5t114.5 38.5q87 0 144 -69.5t57 -196.5v-3h-395v-7q0 -101 51 -175.5t140 -74.5q100 0 186 121l18 -13q-92 -130 -204 -130q-65 0 -112 35.5t-73 95.5
q-49 -56 -116 -94.5t-138 -38.5q-69 0 -107.5 33t-38.5 95q0 90 92.5 142.5t278.5 80.5zM451 289h370q-4 107 -53.5 166.5t-123.5 59.5t-130 -59t-63 -167zM427 318q-189 -29 -268.5 -79.5t-79.5 -123.5q0 -51 32.5 -78.5t90.5 -27.5q68 0 132 36.5t113 94.5q-20 57 -20 121
v57z" />
    <glyph glyph-name="ccedilla" unicode="&#xe7;" horiz-adv-x="526" 
d="M246 -9q-84 12 -135.5 88.5t-51.5 182.5q0 133 65 203.5t156 70.5q70 0 112.5 -35.5t72.5 -107.5l-20 -10q-28 66 -65 98.5t-100 32.5q-82 0 -140 -65t-58 -187q0 -105 53 -178t139 -73q63 0 102.5 33t73.5 103l20 -10q-37 -76 -81.5 -112t-114.5 -36h-6l-19 -62
q24 24 58 24q31 0 51 -17t20 -42q0 -41 -31.5 -63.5t-80.5 -22.5q-69 0 -121 38l12 17q47 -34 109 -34q39 0 64 16.5t25 48.5q0 16 -13.5 27t-34.5 11q-28 0 -67 -28l-16 12z" />
    <glyph glyph-name="egrave" unicode="&#xe8;" horiz-adv-x="534" 
d="M81 268v-7q0 -101 51 -175.5t140 -74.5q100 0 186 121l18 -13q-92 -130 -204 -130q-100 0 -157 81t-57 191q0 133 65 204.5t152 71.5t144 -69.5t57 -196.5v-3h-395zM82 289h370q-4 107 -53.5 166.5t-123.5 59.5t-130 -59t-63 -167zM302 582h-16l-133 151h43z" />
    <glyph glyph-name="eacute" unicode="&#xe9;" horiz-adv-x="534" 
d="M81 268v-7q0 -101 51 -175.5t140 -74.5q100 0 186 121l18 -13q-92 -130 -204 -130q-100 0 -157 81t-57 191q0 133 65 204.5t152 71.5t144 -69.5t57 -196.5v-3h-395zM82 289h370q-4 107 -53.5 166.5t-123.5 59.5t-130 -59t-63 -167zM232 582l106 151h43l-133 -151h-16z
" />
    <glyph glyph-name="ecircumflex" unicode="&#xea;" horiz-adv-x="534" 
d="M81 268v-7q0 -101 51 -175.5t140 -74.5q100 0 186 121l18 -13q-92 -130 -204 -130q-100 0 -157 81t-57 191q0 133 65 204.5t152 71.5t144 -69.5t57 -196.5v-3h-395zM82 289h370q-4 107 -53.5 166.5t-123.5 59.5t-130 -59t-63 -167zM122 577l137 156h16l137 -156h-21
l-125 124l-123 -124h-21z" />
    <glyph glyph-name="edieresis" unicode="&#xeb;" horiz-adv-x="534" 
d="M81 268v-7q0 -101 51 -175.5t140 -74.5q100 0 186 121l18 -13q-92 -130 -204 -130q-100 0 -157 81t-57 191q0 133 65 204.5t152 71.5t144 -69.5t57 -196.5v-3h-395zM82 289h370q-4 107 -53.5 166.5t-123.5 59.5t-130 -59t-63 -167zM324 582v49h33v-49h-33zM177 582v49h33
v-49h-33z" />
    <glyph glyph-name="igrave" unicode="&#xec;" horiz-adv-x="205" 
d="M91 0v525h23v-525h-23zM112 582h-16l-133 151h43z" />
    <glyph glyph-name="iacute" unicode="&#xed;" horiz-adv-x="205" 
d="M91 0v525h23v-525h-23zM92 582l106 151h43l-133 -151h-16z" />
    <glyph glyph-name="icircumflex" unicode="&#xee;" horiz-adv-x="205" 
d="M91 0v525h23v-525h-23zM-43 567l137 156h16l137 -156h-21l-125 124l-123 -124h-21z" />
    <glyph glyph-name="idieresis" unicode="&#xef;" horiz-adv-x="205" 
d="M91 0v525h23v-525h-23zM159 582v49h33v-49h-33zM12 582v49h33v-49h-33z" />
    <glyph glyph-name="eth" unicode="&#xf0;" horiz-adv-x="567" 
d="M283 -11q-93 0 -158.5 77.5t-65.5 195.5q0 121 65 197.5t159 76.5q53 0 101.5 -28t77.5 -79q-36 112 -118 208l-96 -45l-9 19l90 42q-35 38 -82 75l12 16q53 -42 89 -82l111 51l8 -19l-104 -48q145 -169 145 -384q0 -117 -66.5 -195t-158.5 -78zM283 11q84 0 143 71.5
t59 179.5q0 110 -59 181t-143 71q-85 0 -143 -71t-58 -181q0 -108 58.5 -179.5t142.5 -71.5z" />
    <glyph glyph-name="ntilde" unicode="&#xf1;" horiz-adv-x="563" 
d="M86 0v525h23v-92q115 103 216 103q161 0 161 -166v-370h-23v370q0 144 -138 144q-103 0 -216 -107v-407h-23zM430 666q0 -44 -17 -64t-53 -20q-27 0 -85 33q-52 29 -73 29q-25 0 -36 -14.5t-11 -47.5h-23q0 44 17 64t53 20q29 0 84 -32q52 -30 74 -30q25 0 36 14.5
t11 47.5h23z" />
    <glyph glyph-name="ograve" unicode="&#xf2;" horiz-adv-x="567" 
d="M283 -11q-93 0 -158.5 77.5t-65.5 195.5q0 121 65 197.5t159 76.5q92 0 158.5 -77t66.5 -197q0 -117 -66.5 -195t-158.5 -78zM283 11q84 0 143 71.5t59 179.5q0 110 -59 181t-143 71q-85 0 -143 -71t-58 -181q0 -108 58.5 -179.5t142.5 -71.5zM318 582h-16l-133 151h43z
" />
    <glyph glyph-name="oacute" unicode="&#xf3;" horiz-adv-x="567" 
d="M283 -11q-93 0 -158.5 77.5t-65.5 195.5q0 121 65 197.5t159 76.5q92 0 158.5 -77t66.5 -197q0 -117 -66.5 -195t-158.5 -78zM283 11q84 0 143 71.5t59 179.5q0 110 -59 181t-143 71q-85 0 -143 -71t-58 -181q0 -108 58.5 -179.5t142.5 -71.5zM248 582l106 151h43
l-133 -151h-16z" />
    <glyph glyph-name="ocircumflex" unicode="&#xf4;" horiz-adv-x="567" 
d="M283 -11q-93 0 -158.5 77.5t-65.5 195.5q0 121 65 197.5t159 76.5q92 0 158.5 -77t66.5 -197q0 -117 -66.5 -195t-158.5 -78zM283 11q84 0 143 71.5t59 179.5q0 110 -59 181t-143 71q-85 0 -143 -71t-58 -181q0 -108 58.5 -179.5t142.5 -71.5zM138 577l137 156h16
l137 -156h-21l-125 124l-123 -124h-21z" />
    <glyph glyph-name="otilde" unicode="&#xf5;" horiz-adv-x="567" 
d="M283 -11q-93 0 -158.5 77.5t-65.5 195.5q0 121 65 197.5t159 76.5q92 0 158.5 -77t66.5 -197q0 -117 -66.5 -195t-158.5 -78zM283 11q84 0 143 71.5t59 179.5q0 110 -59 181t-143 71q-85 0 -143 -71t-58 -181q0 -108 58.5 -179.5t142.5 -71.5zM432 666q0 -44 -17 -64
t-53 -20q-27 0 -85 33q-52 29 -73 29q-25 0 -36 -14.5t-11 -47.5h-23q0 44 17 64t53 20q29 0 84 -32q52 -30 74 -30q25 0 36 14.5t11 47.5h23z" />
    <glyph glyph-name="odieresis" unicode="&#xf6;" horiz-adv-x="567" 
d="M283 -11q-93 0 -158.5 77.5t-65.5 195.5q0 121 65 197.5t159 76.5q92 0 158.5 -77t66.5 -197q0 -117 -66.5 -195t-158.5 -78zM283 11q84 0 143 71.5t59 179.5q0 110 -59 181t-143 71q-85 0 -143 -71t-58 -181q0 -108 58.5 -179.5t142.5 -71.5zM340 582v49h33v-49h-33z
M193 582v49h33v-49h-33z" />
    <glyph glyph-name="divide" unicode="&#xf7;" horiz-adv-x="627" 
d="M292 465v57h42v-57h-42zM65 313v23h497v-23h-497zM292 126v57h42v-57h-42z" />
    <glyph glyph-name="oslash" unicode="&#xf8;" horiz-adv-x="567" 
d="M419 482q89 -79 89 -220q0 -117 -66.5 -195t-158.5 -78q-64 0 -117 39l-39 -71l-18 10l41 74q-91 81 -91 221q0 121 65 197.5t159 76.5q67 0 120 -41l36 66l18 -10zM161 61l231 415q-51 38 -109 38q-85 0 -143 -71t-58 -181q0 -129 79 -201zM408 463l-231 -416
q49 -36 106 -36q84 0 143 71.5t59 179.5q0 127 -77 201z" />
    <glyph glyph-name="ugrave" unicode="&#xf9;" horiz-adv-x="563" 
d="M477 525v-525h-23v92q-115 -103 -216 -103q-161 0 -161 166v370h23v-370q0 -144 138 -144q103 0 216 107v407h23zM316 582h-16l-133 151h43z" />
    <glyph glyph-name="uacute" unicode="&#xfa;" horiz-adv-x="563" 
d="M477 525v-525h-23v92q-115 -103 -216 -103q-161 0 -161 166v370h23v-370q0 -144 138 -144q103 0 216 107v407h23zM246 582l106 151h43l-133 -151h-16z" />
    <glyph glyph-name="ucircumflex" unicode="&#xfb;" horiz-adv-x="563" 
d="M477 525v-525h-23v92q-115 -103 -216 -103q-161 0 -161 166v370h23v-370q0 -144 138 -144q103 0 216 107v407h23zM136 577l137 156h16l137 -156h-21l-125 124l-123 -124h-21z" />
    <glyph glyph-name="udieresis" unicode="&#xfc;" horiz-adv-x="563" 
d="M477 525v-525h-23v92q-115 -103 -216 -103q-161 0 -161 166v370h23v-370q0 -144 138 -144q103 0 216 107v407h23zM338 582v49h33v-49h-33zM191 582v49h33v-49h-33z" />
    <glyph glyph-name="yacute" unicode="&#xfd;" horiz-adv-x="499" 
d="M251 27l188 498h23l-234 -619q-21 -57 -56.5 -83t-93.5 -26q-37 0 -85 12l6 22q45 -12 79 -12q51 0 81.5 23t48.5 72l31 81l-202 530h24zM221 582l106 151h43l-133 -151h-16z" />
    <glyph glyph-name="thorn" unicode="&#xfe;" horiz-adv-x="576" 
d="M86 -200v940h23v-302q33 39 82 68.5t107 29.5q99 0 158.5 -69.5t59.5 -203.5t-59.5 -204t-158.5 -70q-101 0 -189 100v-289h-23zM298 11q88 0 141.5 63.5t53.5 188.5q0 124 -55 187.5t-142 63.5q-102 0 -187 -103v-294q51 -56 93.5 -81t95.5 -25z" />
    <glyph glyph-name="ydieresis" unicode="&#xff;" horiz-adv-x="499" 
d="M251 27l188 498h23l-234 -619q-21 -57 -56.5 -83t-93.5 -26q-37 0 -85 12l6 22q45 -12 79 -12q51 0 81.5 23t48.5 72l31 81l-202 530h24zM306 582v49h33v-49h-33zM159 582v49h33v-49h-33z" />
    <glyph glyph-name="dotlessi" unicode="&#x131;" horiz-adv-x="205" 
d="M91 0v525h23v-525h-23z" />
    <glyph glyph-name="Lslash" unicode="&#x141;" horiz-adv-x="559" 
d="M104 350l-80 -26v23l80 26v367h25v-359l137 46v-23l-137 -45v-336h385v-23h-410v350z" />
    <glyph glyph-name="lslash" unicode="&#x142;" horiz-adv-x="254" 
d="M115 360l-109 -36v23l109 36v357h23v-349l110 36v-23l-110 -36v-368h-23v360z" />
    <glyph glyph-name="OE" unicode="&#x152;" horiz-adv-x="1115" 
d="M639 527v213h418v-23h-393v-312h298v-23h-298v-359h400v-23h-425v213q-33 -105 -106 -166.5t-168 -61.5q-130 0 -214 107.5t-84 277.5t84 277.5t214 107.5q95 0 168 -61.5t106 -166.5zM365 8q119 0 196.5 102t77.5 260t-77.5 260t-196.5 102q-120 0 -196.5 -101.5
t-76.5 -260.5t76.5 -260.5t196.5 -101.5z" />
    <glyph glyph-name="oe" unicode="&#x153;" horiz-adv-x="961" 
d="M496 179q-22 -86 -81 -138t-132 -52q-93 0 -158.5 77.5t-65.5 195.5q0 121 65 197.5t159 76.5q74 0 133 -51t80 -137q20 92 78 140.5t128 48.5q87 0 144 -69.5t57 -196.5v-3h-395v-7q0 -101 51 -175.5t140 -74.5q100 0 186 121l18 -13q-92 -130 -204 -130
q-79 0 -132 53.5t-71 136.5zM509 289h370q-4 107 -53.5 166.5t-123.5 59.5t-130 -59t-63 -167zM283 11q84 0 143 71.5t59 179.5q0 110 -59 181t-143 71q-85 0 -143 -71t-58 -181q0 -108 58.5 -179.5t142.5 -71.5z" />
    <glyph glyph-name="Scaron" unicode="&#x160;" horiz-adv-x="633" 
d="M327 -15q-118 0 -178.5 52t-89.5 147l24 8q28 -90 83.5 -137t160.5 -47q98 0 156 45t58 121q0 79 -45.5 120.5t-170.5 82.5q-131 43 -176.5 83.5t-45.5 125.5q0 70 57.5 119.5t153.5 49.5q94 0 151.5 -47t84.5 -124l-24 -8q-57 156 -212 156q-86 0 -136 -42.5t-50 -103.5
q0 -73 43 -110t163 -76q127 -41 179.5 -86.5t52.5 -139.5q0 -87 -66.5 -138t-172.5 -51zM461 943l-137 -156h-16l-137 156h21l125 -124l123 124h21z" />
    <glyph glyph-name="scaron" unicode="&#x161;" 
d="M74 99q70 -88 173 -88q77 0 122.5 33t45.5 90t-40.5 85t-132.5 51q-91 23 -130.5 52.5t-39.5 90.5q0 53 43 88t120 35q114 0 183 -79l-18 -14q-62 71 -165 71q-70 0 -105 -29t-35 -72q0 -52 35.5 -76.5t118.5 -45.5q48 -12 77.5 -22.5t57.5 -28.5t41 -44t13 -62
q0 -66 -52.5 -105.5t-138.5 -39.5q-119 0 -191 96zM395 738l-137 -156h-16l-137 156h21l125 -124l123 124h21z" />
    <glyph glyph-name="Ydieresis" unicode="&#x178;" horiz-adv-x="597" 
d="M286 0v337l-252 403h27l238 -380l239 380h26l-253 -403v-337h-25zM355 787v49h33v-49h-33zM208 787v49h33v-49h-33z" />
    <glyph glyph-name="Zcaron" unicode="&#x17d;" horiz-adv-x="613" 
d="M556 0h-509v23l484 695h-458v22h486v-23l-482 -695h479v-22zM451 943l-137 -156h-16l-137 156h21l125 -124l123 124h21z" />
    <glyph glyph-name="zcaron" unicode="&#x17e;" horiz-adv-x="499" 
d="M443 0h-384v20l345 484h-327v21h354v-20l-345 -484h357v-21zM394 738l-137 -156h-16l-137 156h21l125 -124l123 124h21z" />
    <glyph glyph-name="florin" unicode="&#x192;" horiz-adv-x="353" 
d="M-39 -181q-10 0 -34 3l2 21q16 -2 32 -2q91 0 102 81l79 564h-93l3 22h93l15 106q18 127 162 127h26v-22h-26q-64 0 -98 -25.5t-42 -83.5l-14 -102h140l-3 -22h-140l-80 -568q-7 -50 -40 -74.5t-84 -24.5z" />
    <glyph glyph-name="circumflex" unicode="&#x2c6;" 
d="M105 577l137 156h16l137 -156h-21l-125 124l-123 -124h-21z" />
    <glyph glyph-name="caron" unicode="&#x2c7;" 
d="M395 738l-137 -156h-16l-137 156h21l125 -124l123 124h21z" />
    <glyph glyph-name="breve" unicode="&#x2d8;" 
d="M129 740q4 -62 39 -99.5t84 -37.5q48 0 81.5 37.5t37.5 99.5h19q-4 -73 -43 -116t-95 -43q-57 0 -97.5 43.5t-44.5 115.5h19z" />
    <glyph glyph-name="dotaccent" unicode="&#x2d9;" 
d="M234 662v42h32v-42h-32z" />
    <glyph glyph-name="ring" unicode="&#x2da;" 
d="M250 584q-38 0 -63 25t-25 62t25 61.5t63 24.5t63 -24.5t25 -61.5t-25 -62t-63 -25zM250 606q28 0 46.5 18t18.5 47q0 28 -18.5 46t-46.5 18t-46.5 -18t-18.5 -46q0 -29 18.5 -47t46.5 -18z" />
    <glyph glyph-name="ogonek" unicode="&#x2db;" 
d="M276 0q-37 -20 -65.5 -50.5t-28.5 -63.5q0 -26 18.5 -39t48.5 -13q54 0 106 35l10 -17q-56 -37 -116 -37q-40 0 -65.5 18.5t-25.5 52.5q0 31 26.5 62t64.5 52h27z" />
    <glyph glyph-name="tilde" unicode="&#x2dc;" 
d="M399 666q0 -44 -17 -64t-53 -20q-27 0 -85 33q-52 29 -73 29q-25 0 -36 -14.5t-11 -47.5h-23q0 44 17 64t53 20q29 0 84 -32q52 -30 74 -30q25 0 36 14.5t11 47.5h23z" />
    <glyph glyph-name="hungarumlaut" unicode="&#x2dd;" 
d="M249 582l106 151h43l-133 -151h-16zM102 582l106 151h43l-133 -151h-16z" />
    <glyph glyph-name="pi" unicode="&#x3c0;" horiz-adv-x="862" 
d="M431 -14q-159 0 -270 112.5t-111 271.5t111 271.5t270 112.5t270 -112.5t111 -271.5t-111 -271.5t-270 -112.5zM431 8q150 0 254.5 106t104.5 256t-104.5 256t-254.5 106t-254.5 -106t-104.5 -256t104.5 -256t254.5 -106zM309 158v425h140q70 0 107.5 -29.5t37.5 -83.5
q0 -59 -39.5 -88.5t-109.5 -29.5h-114v-194h-22zM331 373h114q127 0 127 97q0 45 -32 68.5t-91 23.5h-118v-189z" />
    <glyph glyph-name="endash" unicode="&#x2013;" horiz-adv-x="580" 
d="M74 304v23h432v-23h-432z" />
    <glyph glyph-name="emdash" unicode="&#x2014;" horiz-adv-x="920" 
d="M74 304v23h772v-23h-772z" />
    <glyph glyph-name="quoteleft" unicode="&#x2018;" horiz-adv-x="255" 
d="M148 740l-18 -93h19v-52h-43v46l27 99h15z" />
    <glyph glyph-name="quoteright" unicode="&#x2019;" horiz-adv-x="255" 
d="M107 595l18 93h-19v52h43v-46l-27 -99h-15z" />
    <glyph glyph-name="quotesinglbase" unicode="&#x201a;" horiz-adv-x="255" 
d="M107 -93l18 93h-19v52h43v-46l-27 -99h-15z" />
    <glyph glyph-name="quotedblleft" unicode="&#x201c;" horiz-adv-x="385" 
d="M278 740l-18 -93h19v-52h-43v46l27 99h15zM148 740l-18 -93h19v-52h-43v46l27 99h15z" />
    <glyph glyph-name="quotedblright" unicode="&#x201d;" horiz-adv-x="385" 
d="M237 595l18 93h-19v52h43v-46l-27 -99h-15zM107 595l18 93h-19v52h43v-46l-27 -99h-15z" />
    <glyph glyph-name="quotedblbase" unicode="&#x201e;" horiz-adv-x="385" 
d="M237 -93l18 93h-19v52h43v-46l-27 -99h-15zM107 -93l18 93h-19v52h43v-46l-27 -99h-15z" />
    <glyph glyph-name="dagger" unicode="&#x2020;" horiz-adv-x="543" 
d="M282 463l206 2v-23l-206 2l3 -644h-25l2 644l-206 -2v23l206 -2l-2 277h25z" />
    <glyph glyph-name="daggerdbl" unicode="&#x2021;" horiz-adv-x="544" 
d="M262 472l-206 -2v23l206 -2l-2 249h25l-3 -249l206 2v-23l-206 2l3 -202l-3 -202l206 2v-23l-206 2l3 -249h-25l2 249l-206 -2v23l206 -2l-2 202z" />
    <glyph glyph-name="bullet" unicode="&#x2022;" horiz-adv-x="461" 
d="M229 253q-43 0 -70 27t-27 70t27 70.5t70 27.5q44 0 71.5 -27.5t27.5 -70.5t-27.5 -70t-71.5 -27z" />
    <glyph glyph-name="ellipsis" unicode="&#x2026;" horiz-adv-x="622" 
d="M497 0v52h43v-52h-43zM290 0v52h43v-52h-43zM82 0v52h43v-52h-43z" />
    <glyph glyph-name="perthousand" unicode="&#x2030;" horiz-adv-x="1332" 
d="M227 311q-71 0 -112.5 58t-41.5 159t42.5 159.5t113.5 58.5t114 -58.5t43 -159.5t-43.5 -159t-115.5 -58zM697 740l-441 -740h-25l441 740h25zM1100 -6q-71 0 -112.5 58t-41.5 159t42.5 159.5t113.5 58.5t114 -58.5t43 -159.5t-43.5 -159t-115.5 -58zM701 -6
q-71 0 -112.5 58t-41.5 159t42.5 159.5t113.5 58.5t114 -58.5t43 -159.5t-43.5 -159t-115.5 -58zM229 723q-61 0 -96 -53t-35 -142t34 -141.5t95 -52.5t97.5 52.5t36.5 141.5t-35.5 142t-96.5 53zM1102 406q-61 0 -96 -53t-35 -142t34 -141.5t95 -52.5t97.5 52.5t36.5 141.5
t-35.5 142t-96.5 53zM703 406q-61 0 -96 -53t-35 -142t34 -141.5t95 -52.5t97.5 52.5t36.5 141.5t-35.5 142t-96.5 53z" />
    <glyph glyph-name="guilsinglleft" unicode="&#x2039;" horiz-adv-x="313" 
d="M205 0l-143 263l143 262h25l-144 -262l144 -263h-25z" />
    <glyph glyph-name="guilsinglright" unicode="&#x203a;" horiz-adv-x="313" 
d="M108 525l143 -263l-143 -262h-25l144 262l-144 263h25z" />
    <glyph glyph-name="fraction" unicode="&#x2044;" horiz-adv-x="466" 
d="M466 740l-441 -740h-25l441 740h25z" />
    <glyph glyph-name="Euro" unicode="&#x20ac;" horiz-adv-x="722" 
d="M130 436h-110v23h113q20 133 95 214.5t179 81.5q52 0 93.5 -18t69 -51.5t45.5 -69.5t33 -84l-24 -8q-14 45 -29.5 78t-40.5 65t-62 48.5t-85 16.5q-95 0 -162.5 -75.5t-86.5 -197.5h255v-23h-258q-3 -28 -3 -60q0 -38 4 -67h257v-23h-254q20 -124 88 -201t166 -77
q52 0 91.5 19t65 54t40 67.5t27.5 75.5l24 -6q-10 -38 -25.5 -72t-43.5 -74t-74 -63.5t-105 -23.5q-108 0 -183.5 83t-95.5 218h-114v23h111q-4 29 -4 67q0 32 3 60z" />
    <glyph glyph-name="trademark" unicode="&#x2122;" horiz-adv-x="861" 
d="M772 686l-158 -369h-21l-154 366v-366h-19v423h18l167 -398l170 398h19v-423h-22v369zM171 718h-141v22h307v-22h-143v-401h-23v401z" />
    <glyph glyph-name="Omega" unicode="&#x2126;" horiz-adv-x="780" 
d="M378 0l2 199l-141 -2l1 -43h-23v43h-43v23l43 -1l2 141l-199 -3v25l199 -2l-2 141l-43 -1v23h43v43h23l-1 -44l141 -1l-2 199h25l-3 -199l141 1l-1 44h23l-1 -44l44 1v-23h-44l-1 -140l199 2v-25l-199 3l1 -141l44 1v-23h-44l1 -43h-23v44l-140 1l3 -199h-25zM400 380
h142l-2 140l-140 2v-142zM238 380h142v142l-141 -1zM400 218l140 1l2 141h-142v-142zM380 218v142h-142l1 -141z" />
    <glyph glyph-name="partialdiff" unicode="&#x2202;" horiz-adv-x="780" 
d="M378 0l2 199l-141 -2l1 -43h-23v43h-43v23l43 -1l2 141l-199 -3v25l199 -2l-2 141l-43 -1v23h43v43h23l-1 -44l141 -1l-2 199h25l-3 -199l141 1l-1 44h23l-1 -44l44 1v-23h-44l-1 -140l199 2v-25l-199 3l1 -141l44 1v-23h-44l1 -43h-23v44l-140 1l3 -199h-25zM400 380
h142l-2 140l-140 2v-142zM238 380h142v142l-141 -1zM400 218l140 1l2 141h-142v-142zM380 218v142h-142l1 -141z" />
    <glyph glyph-name="Delta" unicode="&#x2206;" horiz-adv-x="519" 
d="M396 662v42h32v-42h-32zM128 0v503h-92v22h92v103q0 60 36.5 86.5t116.5 27.5v-22q-70 0 -100 -20.5t-30 -69.5v-105h126v-22h-126v-503h-23zM355 -201q-11 0 -29 3v22q16 -4 27 -4q47 0 47 55v650h23v-645q0 -81 -68 -81z" />
    <glyph glyph-name="product" unicode="&#x220f;" horiz-adv-x="571" 
d="M286 289q-97 0 -164.5 68t-67.5 165t67.5 165t164.5 68t164 -68t67 -165t-67 -165t-164 -68zM286 308q88 0 150 62.5t62 151.5t-62 151.5t-150 62.5t-150.5 -62.5t-62.5 -151.5t62.5 -151.5t150.5 -62.5zM209 392v261h87q90 0 90 -71q0 -65 -75 -73l75 -117h-23l-73 116
h-61v-116h-20zM229 527h65q73 0 73 55q0 52 -71 52h-67v-107z" />
    <glyph glyph-name="summation" unicode="&#x2211;" horiz-adv-x="780" 
d="M378 0l2 199l-141 -2l1 -43h-23v43h-43v23l43 -1l2 141l-199 -3v25l199 -2l-2 141l-43 -1v23h43v43h23l-1 -44l141 -1l-2 199h25l-3 -199l141 1l-1 44h23l-1 -44l44 1v-23h-44l-1 -140l199 2v-25l-199 3l1 -141l44 1v-23h-44l1 -43h-23v44l-140 1l3 -199h-25zM400 380
h142l-2 140l-140 2v-142zM238 380h142v142l-141 -1zM400 218l140 1l2 141h-142v-142zM380 218v142h-142l1 -141z" />
    <glyph glyph-name="minus" unicode="&#x2212;" horiz-adv-x="624" 
d="M65 313v23h494v-23h-494z" />
    <glyph glyph-name="radical" unicode="&#x221a;" horiz-adv-x="582" 
d="M238 -4l-201 529h24l190 -500l271 715h23l-282 -744h-25z" />
    <glyph glyph-name="infinity" unicode="&#x221e;" horiz-adv-x="791" 
d="M668 662v42h32v-42h-32zM400 525v103q0 60 36.5 86.5t116.5 27.5v-22q-70 0 -100 -20.5t-30 -69.5v-105h126v-22h-126v-503h-23v503h-249v-503h-23v503h-92v22h92v103q0 60 36.5 86.5t116.5 27.5v-22q-70 0 -100 -20.5t-30 -69.5v-105h249zM672 0v525h23v-525h-23z" />
    <glyph glyph-name="integral" unicode="&#x222b;" horiz-adv-x="780" 
d="M378 0l2 199l-141 -2l1 -43h-23v43h-43v23l43 -1l2 141l-199 -3v25l199 -2l-2 141l-43 -1v23h43v43h23l-1 -44l141 -1l-2 199h25l-3 -199l141 1l-1 44h23l-1 -44l44 1v-23h-44l-1 -140l199 2v-25l-199 3l1 -141l44 1v-23h-44l1 -43h-23v44l-140 1l3 -199h-25zM400 380
h142l-2 140l-140 2v-142zM238 380h142v142l-141 -1zM400 218l140 1l2 141h-142v-142zM380 218v142h-142l1 -141z" />
    <glyph glyph-name="approxequal" unicode="&#x2248;" horiz-adv-x="780" 
d="M378 0l2 199l-141 -2l1 -43h-23v43h-43v23l43 -1l2 141l-199 -3v25l199 -2l-2 141l-43 -1v23h43v43h23l-1 -44l141 -1l-2 199h25l-3 -199l141 1l-1 44h23l-1 -44l44 1v-23h-44l-1 -140l199 2v-25l-199 3l1 -141l44 1v-23h-44l1 -43h-23v44l-140 1l3 -199h-25zM400 380
h142l-2 140l-140 2v-142zM238 380h142v142l-141 -1zM400 218l140 1l2 141h-142v-142zM380 218v142h-142l1 -141z" />
    <glyph glyph-name="notequal" unicode="&#x2260;" horiz-adv-x="577" 
d="M400 525v103q0 60 36.5 86.5t116.5 27.5v-22q-70 0 -100 -20.5t-30 -69.5v-105h126v-22h-126v-503h-23v503h-249v-503h-23v503h-92v22h92v103q0 60 36.5 86.5t116.5 27.5v-22q-70 0 -100 -20.5t-30 -69.5v-105h249z" />
    <glyph glyph-name="lessequal" unicode="&#x2264;" horiz-adv-x="780" 
d="M378 0l2 199l-141 -2l1 -43h-23v43h-43v23l43 -1l2 141l-199 -3v25l199 -2l-2 141l-43 -1v23h43v43h23l-1 -44l141 -1l-2 199h25l-3 -199l141 1l-1 44h23l-1 -44l44 1v-23h-44l-1 -140l199 2v-25l-199 3l1 -141l44 1v-23h-44l1 -43h-23v44l-140 1l3 -199h-25zM400 380
h142l-2 140l-140 2v-142zM238 380h142v142l-141 -1zM400 218l140 1l2 141h-142v-142zM380 218v142h-142l1 -141z" />
    <glyph glyph-name="greaterequal" unicode="&#x2265;" horiz-adv-x="780" 
d="M378 0l2 199l-141 -2l1 -43h-23v43h-43v23l43 -1l2 141l-199 -3v25l199 -2l-2 141l-43 -1v23h43v43h23l-1 -44l141 -1l-2 199h25l-3 -199l141 1l-1 44h23l-1 -44l44 1v-23h-44l-1 -140l199 2v-25l-199 3l1 -141l44 1v-23h-44l1 -43h-23v44l-140 1l3 -199h-25zM400 380
h142l-2 140l-140 2v-142zM238 380h142v142l-141 -1zM400 218l140 1l2 141h-142v-142zM380 218v142h-142l1 -141z" />
    <glyph glyph-name="lozenge" unicode="&#x25ca;" horiz-adv-x="780" 
d="M378 0l2 199l-141 -2l1 -43h-23v43h-43v23l43 -1l2 141l-199 -3v25l199 -2l-2 141l-43 -1v23h43v43h23l-1 -44l141 -1l-2 199h25l-3 -199l141 1l-1 44h23l-1 -44l44 1v-23h-44l-1 -140l199 2v-25l-199 3l1 -141l44 1v-23h-44l1 -43h-23v44l-140 1l3 -199h-25zM400 380
h142l-2 140l-140 2v-142zM238 380h142v142l-141 -1zM400 218l140 1l2 141h-142v-142zM380 218v142h-142l1 -141z" />
    <glyph glyph-name="apple" unicode="&#xf8ff;" horiz-adv-x="780" 
d="M378 0l2 199l-141 -2l1 -43h-23v43h-43v23l43 -1l2 141l-199 -3v25l199 -2l-2 141l-43 -1v23h43v43h23l-1 -44l141 -1l-2 199h25l-3 -199l141 1l-1 44h23l-1 -44l44 1v-23h-44l-1 -140l199 2v-25l-199 3l1 -141l44 1v-23h-44l1 -43h-23v44l-140 1l3 -199h-25zM400 380
h142l-2 140l-140 2v-142zM238 380h142v142l-141 -1zM400 218l140 1l2 141h-142v-142zM380 218v142h-142l1 -141z" />
    <glyph glyph-name="fi" unicode="&#xfb01;" horiz-adv-x="519" 
d="M396 662v42h32v-42h-32zM128 503h-92v22h92v103q0 60 36.5 86.5t116.5 27.5v-22q-70 0 -100 -20.5t-30 -69.5v-105h126v-22h-126v-503h-23v503zM400 0v525h23v-525h-23z" />
    <glyph glyph-name="fl" unicode="&#xfb02;" horiz-adv-x="514" 
d="M128 503h-92v22h92v103q0 60 36.5 86.5t116.5 27.5v-22q-70 0 -100 -20.5t-30 -69.5v-105h126v-22h-126v-503h-23v503zM400 0v740h23v-740h-23z" />
    <glyph glyph-name="NUL" horiz-adv-x="0" 
 />
  </font>
</defs>
</svg>
